<?xml version="1.0" standalone="no"?>
<!DOCTYPE svg PUBLIC "-//W3C//DTD SVG 1.1//EN" "http://www.w3.org/Graphics/SVG/1.1/DTD/svg11.dtd" >
<svg xmlns="http://www.w3.org/2000/svg" xmlns:xlink="http://www.w3.org/1999/xlink" version="1.1">
<metadata>
Created by FontForge 20170924 at Wed May 11 12:00:10 2011
 By www-data
(c) 2011 Klim Type Foundry. All rights reserved.
</metadata>
<defs>
<font id="Calibre-Medium" horiz-adv-x="500" >
  <font-face 
    font-family="Calibre"
    font-weight="500"
    font-stretch="normal"
    units-per-em="1000"
    panose-1="2 11 6 3 3 2 2 6 2 3"
    ascent="650"
    descent="-350"
    x-height="444"
    cap-height="614"
    bbox="-120 -217 942 894"
    underline-thickness="30"
    underline-position="-70"
    stemh="93"
    stemv="100"
    unicode-range="U+0020-FB02"
  />
<missing-glyph horiz-adv-x="608" 
 />
    <glyph glyph-name="f_f" unicode="ff" horiz-adv-x="601" 
d="M591 648v-88c-15 10 -33 14 -49 14c-40 0 -65 -24 -65 -68v-62h97v-83h-97v-361h-98v361h-186v-361h-98v361h-77v83h77v63c0 95 63 147 146 147c29 0 48 -4 66 -12v-88c-15 10 -33 14 -49 14c-40 0 -65 -24 -65 -68v-56h186v69c0 95 63 147 146 147c29 0 48 -4 66 -12z
" />
    <glyph glyph-name=".notdef" horiz-adv-x="608" 
 />
    <glyph glyph-name="space" unicode=" " horiz-adv-x="221" 
 />
    <glyph glyph-name="exclam" unicode="!" horiz-adv-x="200" 
d="M32 62c0 39 30 69 68 69s68 -30 68 -69s-30 -69 -68 -69s-68 30 -68 69zM65 193l-25 421h120l-25 -421h-70z" />
    <glyph glyph-name="quotedbl" unicode="&#x22;" horiz-adv-x="305" 
d="M40 374v240h85v-240h-85zM180 374v240h85v-240h-85z" />
    <glyph glyph-name="numbersign" unicode="#" horiz-adv-x="601" 
d="M538 238l-15 -76h-106l-38 -162h-88l39 162h-128l-39 -162h-87l38 162h-94l16 76h96l33 138h-102l15 76h105l39 162h88l-39 -162h128l39 162h87l-39 -162h95l-16 -76h-97l-33 -138h103zM253 376l-33 -138h128l33 138h-128z" />
    <glyph glyph-name="dollar" unicode="$" horiz-adv-x="490" 
d="M209 -92v99c-97 14 -166 73 -183 170h100c19 -60 67 -87 130 -87c68 0 110 31 110 85c0 41 -23 65 -83 79l-98 24c-79 19 -144 65 -144 160c0 92 66 161 168 171v90h90v-95c86 -18 138 -75 156 -157h-97c-14 44 -53 79 -122 79c-62 0 -101 -33 -101 -81
c0 -40 25 -64 76 -77l100 -24c90 -21 149 -76 149 -164c0 -97 -65 -159 -161 -173v-99h-90z" />
    <glyph glyph-name="percent" unicode="%" horiz-adv-x="662" 
d="M107 0l369 614h79l-369 -614h-79zM105 485c0 -35 28 -63 63 -63s64 28 64 63s-29 64 -64 64s-63 -29 -63 -64zM632 129c0 -77 -61 -139 -138 -139s-139 62 -139 139s62 138 139 138s138 -61 138 -138zM307 485c0 -77 -62 -138 -139 -138s-138 61 -138 138s61 139 138 139
s139 -62 139 -139zM557 129c0 35 -28 63 -63 63s-64 -28 -64 -63s29 -64 64 -64s63 29 63 64z" />
    <glyph glyph-name="ampersand" unicode="&#x26;" horiz-adv-x="606" 
d="M444 475h-99c0 36 -23 70 -69 70c-43 0 -80 -29 -80 -77c0 -40 28 -70 58 -102l154 -165c12 33 18 70 20 111h92c-2 -63 -18 -126 -48 -179l124 -133h-130l-54 56c-44 -41 -101 -66 -168 -66c-121 0 -204 79 -204 190c0 71 44 131 106 164c-29 36 -46 72 -46 121
c0 99 76 159 176 159c109 0 168 -68 168 -149zM244 72c46 0 84 16 113 44l-157 167c-39 -17 -66 -57 -66 -103c0 -64 43 -108 110 -108z" />
    <glyph glyph-name="quoteright" unicode="&#x2019;" horiz-adv-x="193" 
d="M19 385l69 108c-32 5 -56 28 -56 64c0 39 30 67 68 67s68 -26 68 -75c0 -26 -13 -56 -29 -80l-55 -84h-65z" />
    <glyph glyph-name="parenleft" unicode="(" horiz-adv-x="318" 
d="M30 283c0 183 104 324 268 367v-108c-97 -24 -169 -121 -169 -259s72 -235 169 -259v-108c-164 43 -268 184 -268 367z" />
    <glyph glyph-name="parenright" unicode=")" horiz-adv-x="318" 
d="M288 283c0 -183 -104 -324 -268 -367v108c97 24 169 121 169 259s-72 235 -169 259v108c164 -43 268 -184 268 -367z" />
    <glyph glyph-name="asterisk" unicode="*" horiz-adv-x="348" 
d="M118 500l-88 51l28 48l88 -51v102h56v-102l88 51l28 -48l-89 -51l89 -51l-28 -48l-88 51v-102h-56v102l-88 -51l-28 48z" />
    <glyph glyph-name="plus" unicode="+" horiz-adv-x="564" 
d="M242 507h80v-168h168v-80h-168v-167h-80v167h-168v80h168v168z" />
    <glyph glyph-name="comma" unicode="," horiz-adv-x="200" 
d="M16 -113l72 111c-32 5 -56 28 -56 64c0 39 30 67 68 67s68 -26 68 -75c0 -26 -13 -56 -29 -80l-58 -87h-65z" />
    <glyph glyph-name="hyphen" unicode="-" horiz-adv-x="321" 
d="M40 217v91h241v-91h-241z" />
    <glyph glyph-name="period" unicode="." horiz-adv-x="200" 
d="M32 62c0 39 30 69 68 69s68 -30 68 -69s-30 -69 -68 -69s-68 30 -68 69z" />
    <glyph glyph-name="slash" unicode="/" horiz-adv-x="357" 
d="M5 -84l248 734h99l-248 -734h-99z" />
    <glyph glyph-name="zero" unicode="0" horiz-adv-x="540" 
d="M270 -10c-139 0 -232 130 -232 317s93 317 232 317s232 -130 232 -317s-93 -317 -232 -317zM270 530c-91 0 -131 -94 -131 -223s40 -223 131 -223c90 0 130 94 130 223s-40 223 -130 223z" />
    <glyph glyph-name="one" unicode="1" horiz-adv-x="329" 
d="M264 614v-614h-101v489l-144 -73v105l184 93h61z" />
    <glyph glyph-name="two" unicode="2" horiz-adv-x="470" 
d="M329 445c0 51 -36 87 -94 87c-61 0 -94 -44 -98 -102h-107c12 114 91 194 205 194c123 0 195 -69 195 -178c0 -75 -62 -137 -125 -208l-132 -147h267v-91h-409v68l182 202c63 70 116 122 116 175z" />
    <glyph glyph-name="three" unicode="3" horiz-adv-x="465" 
d="M186 270v87h36c59 0 103 31 103 89c0 49 -35 88 -94 88c-65 0 -100 -42 -104 -96h-102c13 107 90 186 205 186c121 0 192 -72 192 -172c0 -64 -31 -117 -80 -138c63 -26 92 -82 92 -139c0 -104 -76 -185 -203 -185c-126 0 -213 79 -220 194h101c7 -62 47 -105 118 -105
c62 0 106 38 106 95c0 59 -46 96 -111 96h-39z" />
    <glyph glyph-name="four" unicode="4" horiz-adv-x="517" 
d="M359 614l-223 -400h164v144h96v-144h101v-86h-101v-128h-96v128h-277v72l231 414h105z" />
    <glyph glyph-name="five" unicode="5" horiz-adv-x="477" 
d="M243 316c-45 0 -79 -22 -100 -48h-79v346h346v-92h-261v-149c19 15 58 32 105 32c115 0 194 -84 194 -207c0 -122 -84 -208 -203 -208c-122 0 -205 76 -215 194h101c8 -62 45 -104 114 -104c65 0 106 49 106 118s-41 118 -108 118z" />
    <glyph glyph-name="six" unicode="6" horiz-adv-x="505" 
d="M145 196c0 -71 46 -119 116 -119c68 0 114 48 114 119c0 73 -46 122 -114 122c-70 0 -116 -48 -116 -122zM465 468h-104c-14 44 -44 71 -94 71c-83 0 -137 -102 -137 -205v-11c22 46 76 79 141 79c124 0 199 -95 199 -204c0 -112 -76 -208 -210 -208
c-75 0 -144 36 -185 118c-26 54 -37 110 -37 186c0 191 88 330 229 330c112 0 173 -57 198 -156z" />
    <glyph glyph-name="seven" unicode="7" horiz-adv-x="450" 
d="M422 535l-212 -535h-104l210 522h-298v92h404v-79z" />
    <glyph glyph-name="eight" unicode="8" horiz-adv-x="492" 
d="M246 74c64 0 112 38 112 101c0 64 -48 101 -112 101s-112 -37 -112 -101c0 -63 48 -101 112 -101zM246 363c50 0 94 32 94 88c0 58 -44 90 -94 90s-94 -32 -94 -90c0 -56 44 -88 94 -88zM246 -10c-118 0 -212 66 -212 177c0 82 53 136 113 151c-52 20 -94 69 -94 138
c0 108 90 168 193 168s193 -60 193 -168c0 -69 -42 -118 -94 -138c60 -15 113 -69 113 -151c0 -111 -94 -177 -212 -177z" />
    <glyph glyph-name="nine" unicode="9" horiz-adv-x="505" 
d="M360 418c0 71 -46 119 -116 119c-68 0 -114 -48 -114 -119c0 -73 46 -122 114 -122c70 0 116 48 116 122zM40 146h104c14 -44 44 -71 94 -71c83 0 137 102 137 205v11c-22 -46 -76 -79 -141 -79c-124 0 -199 95 -199 204c0 112 76 208 210 208c75 0 144 -36 185 -118
c26 -54 37 -110 37 -186c0 -191 -88 -330 -229 -330c-112 0 -173 57 -198 156z" />
    <glyph glyph-name="colon" unicode=":" horiz-adv-x="200" 
d="M32 62c0 39 30 69 68 69s68 -30 68 -69s-30 -69 -68 -69s-68 30 -68 69zM32 362c0 39 30 69 68 69s68 -30 68 -69s-30 -69 -68 -69s-68 30 -68 69z" />
    <glyph glyph-name="semicolon" unicode=";" horiz-adv-x="200" 
d="M16 -113l72 111c-32 5 -56 28 -56 64c0 39 30 67 68 67s68 -26 68 -75c0 -26 -13 -56 -29 -80l-58 -87h-65zM32 362c0 39 30 69 68 69s68 -30 68 -69s-30 -69 -68 -69s-68 30 -68 69z" />
    <glyph glyph-name="less" unicode="&#x3c;" horiz-adv-x="446" 
d="M65 244v107l316 152v-92l-243 -114l243 -113v-93z" />
    <glyph glyph-name="equal" unicode="=" horiz-adv-x="578" 
d="M82 188v74h415v-74h-415zM82 336v76h415v-76h-415z" />
    <glyph glyph-name="greater" unicode="&#x3e;" horiz-adv-x="446" 
d="M382 351v-107l-317 -153v93l243 113l-243 114v92z" />
    <glyph glyph-name="question" unicode="?" horiz-adv-x="441" 
d="M156 62c0 39 30 69 68 69s68 -30 68 -69s-30 -69 -68 -69s-68 30 -68 69zM421 446c0 -75 -55 -126 -102 -174c-35 -36 -42 -58 -42 -79h-98c3 55 17 81 61 129c34 38 79 70 79 123c0 51 -35 87 -93 87c-62 0 -94 -44 -98 -102h-108c12 114 92 194 206 194
c123 0 195 -69 195 -178z" />
    <glyph glyph-name="at" unicode="@" horiz-adv-x="774" 
d="M570 382l-40 -231c-6 -35 2 -50 33 -50c62 0 106 66 106 173c0 141 -110 225 -258 225c-179 0 -303 -126 -303 -309c0 -211 168 -273 304 -273c93 0 161 20 224 48v-72c-50 -25 -133 -47 -224 -47c-196 0 -384 103 -384 344c0 210 154 381 383 381
c199 0 335 -128 335 -297c0 -164 -98 -241 -199 -241c-47 0 -88 20 -108 54c-18 -33 -60 -54 -96 -54c-82 0 -135 65 -135 149c0 111 77 210 184 210c41 0 72 -18 85 -37l6 27h87zM441 160l21 111c-8 23 -32 41 -64 41c-60 0 -98 -61 -98 -125c0 -42 23 -73 65 -73
c35 0 60 22 76 46z" />
    <glyph glyph-name="A" unicode="A" horiz-adv-x="612" 
d="M256 614h100l236 -614h-106l-63 170h-235l-63 -170h-105zM305 487l-84 -227h168z" />
    <glyph glyph-name="B" unicode="B" horiz-adv-x="551" 
d="M411 317c58 -19 100 -76 100 -141c0 -115 -80 -176 -208 -176h-235v614h215c128 0 208 -57 208 -167c0 -66 -35 -114 -80 -130zM169 356h113c71 0 109 27 109 85s-38 83 -109 83h-113v-168zM169 270v-180h132c70 0 108 35 108 90c0 56 -38 90 -108 90h-132z" />
    <glyph glyph-name="C" unicode="C" horiz-adv-x="597" 
d="M35 307c0 189 121 317 279 317c139 0 227 -80 250 -203h-102c-24 65 -66 109 -148 109c-108 0 -174 -94 -174 -223c0 -128 65 -223 174 -223c82 0 124 44 148 110h102c-23 -124 -112 -204 -250 -204c-158 0 -279 128 -279 317z" />
    <glyph glyph-name="D" unicode="D" horiz-adv-x="608" 
d="M172 93h99c129 0 198 83 198 214c0 132 -69 215 -198 215h-99v-429zM68 0v614h207c181 0 298 -120 298 -307s-117 -307 -298 -307h-207z" />
    <glyph glyph-name="E" unicode="E" horiz-adv-x="514" 
d="M68 614h401v-92h-299v-162h271v-91h-271v-176h299v-93h-401v614z" />
    <glyph glyph-name="F" unicode="F" horiz-adv-x="495" 
d="M172 0h-104v614h392v-92h-288v-182h269v-91h-269v-249z" />
    <glyph glyph-name="G" unicode="G" horiz-adv-x="620" 
d="M486 228h-134v89h233v-48c0 -170 -111 -279 -261 -279c-165 0 -289 128 -289 317s125 317 285 317c141 0 228 -80 252 -202h-104c-25 66 -66 108 -148 108c-109 0 -180 -93 -180 -223s70 -225 184 -225c93 0 149 60 162 146z" />
    <glyph glyph-name="H" unicode="H" horiz-adv-x="653" 
d="M481 614h104v-614h-104v269h-309v-269h-104v614h104v-253h309v253z" />
    <glyph glyph-name="I" unicode="I" horiz-adv-x="240" 
d="M172 614v-614h-104v614h104z" />
    <glyph glyph-name="J" unicode="J" horiz-adv-x="485" 
d="M15 179h108c7 -59 39 -94 98 -94c70 0 104 40 104 127v402h104v-402c0 -146 -80 -222 -206 -222c-132 0 -199 80 -208 189z" />
    <glyph glyph-name="K" unicode="K" horiz-adv-x="582" 
d="M172 614v-294l255 294h131l-248 -279l257 -335h-130l-202 263l-63 -72v-191h-104v614h104z" />
    <glyph glyph-name="L" unicode="L" horiz-adv-x="505" 
d="M68 0v614h104v-521h295v-93h-399z" />
    <glyph glyph-name="M" unicode="M" horiz-adv-x="743" 
d="M410 0h-74l-169 427v-427h-99v614h119l187 -472l185 472h116v-614h-100v427z" />
    <glyph glyph-name="N" unicode="N" horiz-adv-x="630" 
d="M562 614v-614h-80l-314 447v-447h-100v614h98l296 -426v426h100z" />
    <glyph glyph-name="O" unicode="O" horiz-adv-x="637" 
d="M602 307c0 -183 -118 -317 -284 -317s-283 134 -283 317c0 184 117 317 283 317s284 -133 284 -317zM497 307c0 130 -71 224 -179 224s-178 -94 -178 -224s70 -224 178 -224s179 94 179 224z" />
    <glyph glyph-name="P" unicode="P" horiz-adv-x="545" 
d="M305 229h-133v-229h-104v614h237c127 0 210 -66 210 -193c0 -125 -83 -192 -210 -192zM412 421c0 61 -37 103 -109 103h-131v-205h131c72 0 109 43 109 102z" />
    <glyph glyph-name="Q" unicode="Q" horiz-adv-x="636" 
d="M497 -41l-50 62c-38 -20 -82 -31 -129 -31c-166 0 -283 134 -283 317c0 184 117 317 283 317s284 -133 284 -317c0 -94 -32 -175 -85 -231l51 -63zM497 307c0 130 -71 224 -179 224s-178 -94 -178 -224s70 -224 178 -224c26 0 49 4 70 12l-51 63l72 53l49 -61
c25 37 39 89 39 157z" />
    <glyph glyph-name="R" unicode="R" horiz-adv-x="555" 
d="M246 249h-74v-249h-104v614h237c127 0 209 -64 209 -184c0 -103 -60 -162 -157 -177l178 -253h-118zM172 524v-188h131c69 0 108 37 108 94s-39 94 -108 94h-131z" />
    <glyph glyph-name="S" unicode="S" horiz-adv-x="519" 
d="M20 170h106c20 -63 72 -92 139 -92c72 0 119 34 119 91c0 43 -25 68 -89 83l-104 25c-85 20 -153 66 -153 165c0 104 85 182 209 182c133 0 211 -68 233 -170h-104c-16 46 -55 82 -128 82c-66 0 -111 -34 -111 -85c0 -41 26 -67 81 -80l107 -25c96 -22 159 -78 159 -170
c0 -115 -92 -186 -219 -186c-130 0 -223 66 -245 180z" />
    <glyph glyph-name="T" unicode="T" horiz-adv-x="572" 
d="M30 522v92h512v-92h-204v-522h-104v522h-204z" />
    <glyph glyph-name="U" unicode="U" horiz-adv-x="608" 
d="M304 -10c-146 0 -246 86 -246 255v369h104v-358c0 -118 50 -173 142 -173s142 55 142 173v358h104v-370c0 -168 -99 -254 -246 -254z" />
    <glyph glyph-name="V" unicode="V" horiz-adv-x="603" 
d="M351 0h-99l-232 614h109l174 -479l174 479h106z" />
    <glyph glyph-name="W" unicode="W" horiz-adv-x="775" 
d="M347 614h84l116 -452l111 452h100l-158 -614h-96l-116 439l-118 -439h-95l-158 614h102l111 -452z" />
    <glyph glyph-name="X" unicode="X" horiz-adv-x="573" 
d="M553 614l-208 -299l218 -315h-119l-159 231l-159 -231h-116l217 313l-207 301h119l148 -217l151 217h115z" />
    <glyph glyph-name="Y" unicode="Y" horiz-adv-x="578" 
d="M291 339l162 275h110l-223 -369v-245h-103v245l-222 369h113z" />
    <glyph glyph-name="Z" unicode="Z" horiz-adv-x="549" 
d="M504 93v-93h-459v73l324 449h-319v92h449v-72l-323 -449h328z" />
    <glyph glyph-name="bracketleft" unicode="[" horiz-adv-x="315" 
d="M162 560v-554h133v-90h-227v734h227v-90h-133z" />
    <glyph glyph-name="backslash" unicode="\" horiz-adv-x="357" 
d="M104 650l248 -734h-99l-248 734h99z" />
    <glyph glyph-name="bracketright" unicode="]" horiz-adv-x="315" 
d="M153 6v554h-133v90h227v-734h-227v90h133z" />
    <glyph glyph-name="asciicircum" unicode="^" horiz-adv-x="391" 
d="M145 614h102l134 -206h-101l-84 126l-84 -126h-102z" />
    <glyph glyph-name="underscore" unicode="_" horiz-adv-x="381" 
d="M20 -129v87h341v-87h-341z" />
    <glyph glyph-name="quoteleft" unicode="&#x2018;" horiz-adv-x="193" 
d="M174 614l-69 -108c32 -5 56 -28 56 -64c0 -39 -30 -67 -68 -67s-68 26 -68 75c0 26 13 56 29 80l55 84h65z" />
    <glyph glyph-name="a" unicode="a" horiz-adv-x="460" 
d="M404 0h-95v25c-15 -15 -60 -33 -110 -33c-91 0 -166 54 -166 145c0 84 75 143 173 143c40 0 85 -14 103 -27v36c0 45 -28 80 -85 80c-40 0 -65 -17 -76 -48h-96c13 76 83 133 174 133c112 0 178 -62 178 -163v-291zM309 118v37c-11 28 -51 45 -91 45
c-45 0 -92 -19 -92 -63c0 -45 47 -64 92 -64c40 0 80 17 91 45z" />
    <glyph glyph-name="b" unicode="b" horiz-adv-x="512" 
d="M162 38v-38h-100v650h100v-244c20 25 64 48 113 48c130 0 206 -105 206 -232c0 -128 -76 -232 -206 -232c-49 0 -93 23 -113 48zM162 306v-168c17 -35 55 -59 96 -59c77 0 123 61 123 143s-46 143 -123 143c-41 0 -79 -24 -96 -59z" />
    <glyph glyph-name="c" unicode="c" horiz-adv-x="451" 
d="M31 222c0 138 87 232 207 232c106 0 173 -60 186 -149h-100c-8 40 -41 62 -85 62c-67 0 -108 -61 -108 -145s41 -145 108 -145c44 0 77 22 85 62h100c-13 -89 -80 -149 -186 -149c-120 0 -207 94 -207 232z" />
    <glyph glyph-name="d" unicode="d" horiz-adv-x="512" 
d="M350 0v38c-20 -25 -64 -48 -113 -48c-130 0 -206 104 -206 232c0 127 76 232 206 232c49 0 93 -23 113 -48v244h100v-650h-100zM350 138v168c-17 35 -55 59 -96 59c-77 0 -123 -61 -123 -143s46 -143 123 -143c41 0 79 24 96 59z" />
    <glyph glyph-name="e" unicode="e" horiz-adv-x="462" 
d="M336 138h92c-15 -88 -80 -148 -187 -148c-124 0 -210 94 -210 231c0 133 87 233 208 233c125 0 193 -89 193 -219v-36h-303c3 -78 48 -125 112 -125c48 0 84 21 95 64zM240 370c-55 0 -96 -34 -108 -98h201c-1 54 -32 98 -93 98z" />
    <glyph glyph-name="f" unicode="f" horiz-adv-x="317" 
d="M307 648v-88c-15 10 -33 14 -49 14c-40 0 -65 -24 -65 -68v-62h97v-83h-97v-361h-98v361h-77v83h77v69c0 95 63 147 146 147c29 0 48 -4 66 -12z" />
    <glyph glyph-name="g" unicode="g" horiz-adv-x="512" 
d="M350 30v20c-20 -24 -63 -46 -113 -46c-131 0 -206 108 -206 225s75 225 206 225c50 0 93 -22 113 -46v36h100v-407c0 -150 -91 -217 -209 -217c-113 0 -186 59 -197 156h97c10 -49 45 -74 100 -74c74 0 109 45 109 128zM350 145v168c-17 30 -54 53 -96 53
c-77 0 -121 -58 -121 -137s44 -137 121 -137c42 0 79 23 96 53z" />
    <glyph glyph-name="h" unicode="h" horiz-adv-x="495" 
d="M62 0v650h100v-248c24 28 68 52 120 52c101 0 157 -67 157 -165v-289h-100v272c0 55 -27 91 -84 91c-43 0 -82 -27 -93 -71v-292h-100z" />
    <glyph glyph-name="i" unicode="i" horiz-adv-x="224" 
d="M162 444v-444h-100v444h100zM174 578c0 -34 -29 -61 -62 -61s-62 27 -62 61s29 61 62 61s62 -27 62 -61z" />
    <glyph glyph-name="j" unicode="j" horiz-adv-x="222" 
d="M162 444v-484c0 -88 -49 -140 -145 -140c-10 0 -30 1 -40 5v84c7 -2 20 -4 30 -4c38 0 55 20 55 62v477h100zM174 578c0 -34 -29 -61 -62 -61s-62 27 -62 61s29 61 62 61s62 -27 62 -61z" />
    <glyph glyph-name="k" unicode="k" horiz-adv-x="481" 
d="M350 0l-147 189l-41 -42v-147h-100v650h100v-388l174 182h128l-189 -192l196 -252h-121z" />
    <glyph glyph-name="l" unicode="l" horiz-adv-x="224" 
d="M162 650v-650h-100v650h100z" />
    <glyph glyph-name="m" unicode="m" horiz-adv-x="722" 
d="M390 395c31 36 72 59 132 59c91 0 144 -64 144 -165v-289h-100v273c0 55 -24 91 -73 91c-36 0 -70 -22 -79 -66v-298h-100v273c0 55 -24 91 -73 91c-36 0 -70 -22 -79 -66v-298h-100v444h100v-37c21 28 61 47 111 47s94 -25 117 -59z" />
    <glyph glyph-name="n" unicode="n" horiz-adv-x="495" 
d="M62 0v444h100v-42c24 28 68 52 120 52c101 0 157 -67 157 -165v-289h-100v272c0 55 -27 91 -84 91c-43 0 -82 -27 -93 -71v-292h-100z" />
    <glyph glyph-name="o" unicode="o" horiz-adv-x="484" 
d="M453 222c0 -136 -86 -232 -211 -232s-211 96 -211 232s86 232 211 232s211 -96 211 -232zM353 222c0 84 -39 146 -111 146s-111 -62 -111 -146s39 -146 111 -146s111 62 111 146z" />
    <glyph glyph-name="p" unicode="p" horiz-adv-x="512" 
d="M162 38v-208h-100v614h100v-38c20 25 64 48 113 48c130 0 206 -108 206 -232s-76 -232 -206 -232c-49 0 -93 23 -113 48zM162 306v-168c17 -35 55 -59 96 -59c77 0 123 61 123 143s-46 143 -123 143c-41 0 -79 -24 -96 -59z" />
    <glyph glyph-name="q" unicode="q" horiz-adv-x="512" 
d="M350 -170v208c-20 -25 -64 -48 -113 -48c-130 0 -206 108 -206 232s76 232 206 232c49 0 93 -23 113 -48v38h100v-614h-100zM350 138v168c-17 35 -55 59 -96 59c-77 0 -123 -61 -123 -143s46 -143 123 -143c41 0 79 24 96 59z" />
    <glyph glyph-name="r" unicode="r" horiz-adv-x="340" 
d="M310 446v-103c-14 10 -38 15 -59 15c-41 0 -79 -23 -89 -71v-287h-100v444h100v-46c17 33 56 56 99 56c22 0 42 -4 49 -8z" />
    <glyph glyph-name="s" unicode="s" horiz-adv-x="429" 
d="M31 128h102c11 -37 44 -56 88 -56c46 0 76 18 76 53c0 24 -15 37 -52 46l-92 22c-63 15 -110 49 -110 122c0 80 71 139 168 139c104 0 163 -50 178 -131h-98c-9 29 -35 49 -81 49c-35 0 -71 -16 -71 -51c0 -20 14 -33 46 -41l94 -22c76 -18 114 -61 114 -126
c0 -88 -73 -142 -173 -142c-104 0 -176 52 -189 138z" />
    <glyph glyph-name="t" unicode="t" horiz-adv-x="335" 
d="M85 120v241h-70v83h70v119h100v-119h100v-83h-100v-230c0 -36 20 -52 53 -52c20 0 43 8 57 18v-91c-17 -10 -44 -16 -75 -16c-79 0 -135 42 -135 130z" />
    <glyph glyph-name="u" unicode="u" horiz-adv-x="493" 
d="M431 444v-444h-100v42c-24 -28 -67 -52 -119 -52c-101 0 -156 67 -156 165v289h100v-272c0 -55 26 -91 83 -91c43 0 81 27 92 71v292h100z" />
    <glyph glyph-name="v" unicode="v" horiz-adv-x="476" 
d="M289 0h-103l-168 444h107l115 -325l114 325h104z" />
    <glyph glyph-name="w" unicode="w" horiz-adv-x="652" 
d="M373 444l78 -315l86 315h97l-129 -444h-100l-79 309l-79 -309h-100l-129 444h100l86 -315l78 315h91z" />
    <glyph glyph-name="x" unicode="x" horiz-adv-x="465" 
d="M441 444l-154 -212l166 -232h-113l-110 157l-111 -157h-107l165 228l-153 216h113l97 -140l100 140h107z" />
    <glyph glyph-name="y" unicode="y" horiz-adv-x="476" 
d="M224 -170h-97l63 158l-172 456h107l116 -327l114 327h103z" />
    <glyph glyph-name="z" unicode="z" horiz-adv-x="450" 
d="M403 83v-83h-360v63l228 298h-218v83h346v-63l-227 -298h231z" />
    <glyph glyph-name="braceleft" unicode="{" horiz-adv-x="344" 
d="M197 200v-165c0 -19 10 -29 29 -29h98v-90h-96c-76 0 -129 53 -129 130v162c0 19 -10 29 -29 29h-50v92h50c19 0 29 10 29 29v162c0 77 53 130 129 130h96v-90h-98c-19 0 -29 -10 -29 -29v-165c0 -43 -21 -67 -47 -83c26 -16 47 -40 47 -83z" />
    <glyph glyph-name="bar" unicode="|" horiz-adv-x="232" 
d="M68 -84v734h96v-734h-96z" />
    <glyph glyph-name="braceright" unicode="}" horiz-adv-x="344" 
d="M147 35v165c0 43 21 67 47 83c-26 16 -47 40 -47 83v165c0 19 -10 29 -29 29h-98v90h96c76 0 129 -53 129 -130v-162c0 -19 10 -29 29 -29h50v-92h-50c-19 0 -29 -10 -29 -29v-162c0 -77 -53 -130 -129 -130h-96v90h98c19 0 29 10 29 29z" />
    <glyph glyph-name="asciitilde" unicode="~" horiz-adv-x="429" 
d="M309 341h80c0 -92 -39 -144 -103 -144c-61 0 -92 62 -129 62c-24 0 -37 -19 -37 -58h-80c0 90 38 143 103 143c60 0 91 -61 129 -61c23 0 37 19 37 58z" />
    <glyph glyph-name="exclamdown" unicode="&#xa1;" horiz-adv-x="210" 
d="M32 456c0 39 30 69 68 69s68 -30 68 -69s-30 -69 -68 -69s-68 30 -68 69zM40 -96l25 421h70l25 -421h-120z" />
    <glyph glyph-name="cent" unicode="&#xa2;" horiz-adv-x="451" 
d="M31 232c0 122 68 209 167 228v87h90v-88c79 -17 126 -74 135 -151h-98c-6 44 -41 69 -87 69c-67 0 -107 -61 -107 -145s40 -145 107 -145c46 0 81 25 87 69h98c-9 -77 -56 -134 -135 -151v-94h-90v93c-99 18 -167 106 -167 228z" />
    <glyph glyph-name="sterling" unicode="&#xa3;" horiz-adv-x="492" 
d="M203 426v-83h141v-81h-141v-88c0 -35 -6 -71 -21 -91h286v-83h-438v83h57c13 23 20 47 20 91v88h-77v81h77v83c0 109 73 198 186 198c102 0 164 -64 175 -156h-95c-6 44 -34 70 -80 70c-61 0 -90 -48 -90 -112z" />
    <glyph glyph-name="fraction" unicode="&#x2044;" horiz-adv-x="216" 
d="M336 614l-369 -614h-87l369 614h87z" />
    <glyph glyph-name="yen" unicode="&#xa5;" horiz-adv-x="552" 
d="M67 265v77h112l-157 272h110l146 -263l145 263h107l-158 -272h112v-77h-157v-63h157v-77h-157v-125h-103v125h-157v77h157v63h-157z" />
    <glyph glyph-name="florin" unicode="&#x192;" horiz-adv-x="424" 
d="M69 267v84h87l22 126c17 95 79 147 172 147c25 0 47 -5 64 -12v-88c-17 9 -38 14 -62 14c-40 0 -69 -24 -77 -68l-21 -119h90v-84h-105l-53 -300c-17 -95 -59 -147 -155 -147c-29 0 -47 4 -64 12v88c17 -9 46 -14 62 -14c41 0 52 24 60 68l52 293h-72z" />
    <glyph glyph-name="section" unicode="&#xa7;" horiz-adv-x="465" 
d="M377 90c9 -16 14 -34 14 -56c0 -82 -67 -134 -164 -134c-108 0 -169 57 -180 143h96c6 -35 32 -63 84 -63c36 0 68 16 68 49c0 29 -22 44 -57 66l-108 70c-58 37 -110 79 -110 150c0 47 23 93 68 119c-9 15 -14 34 -14 56c0 82 67 134 164 134c108 0 169 -57 180 -143
h-96c-6 35 -32 63 -84 63c-36 0 -68 -16 -68 -49c0 -29 22 -44 57 -66l108 -70c58 -37 110 -79 110 -150c0 -48 -24 -94 -68 -119zM174 244l139 -92c30 7 41 31 41 54c0 33 -34 55 -63 74l-139 92c-30 -7 -41 -31 -41 -54c0 -33 34 -55 63 -74z" />
    <glyph glyph-name="quotesingle" unicode="'" horiz-adv-x="169" 
d="M40 374v240h89v-240h-89z" />
    <glyph glyph-name="quotedblleft" unicode="&#x201c;" horiz-adv-x="374" 
d="M174 614l-69 -108c32 -5 56 -28 56 -64c0 -39 -30 -67 -68 -67s-68 26 -68 75c0 26 13 56 29 80l55 84h65zM355 614l-69 -108c32 -5 56 -28 56 -64c0 -39 -30 -67 -68 -67s-68 26 -68 75c0 26 13 56 29 80l55 84h65z" />
    <glyph glyph-name="guillemotleft" unicode="&#xab;" horiz-adv-x="397" 
d="M207 64h-90l-92 158l92 158h90l-92 -158zM372 64h-90l-92 158l92 158h90l-92 -158z" />
    <glyph glyph-name="guilsinglleft" unicode="&#x2039;" horiz-adv-x="236" 
d="M211 64h-94l-92 158l92 158h94l-92 -158z" />
    <glyph glyph-name="guilsinglright" unicode="&#x203a;" horiz-adv-x="236" 
d="M119 64h-94l92 158l-92 158h94l92 -158z" />
    <glyph glyph-name="fi" unicode="&#xfb01;" horiz-adv-x="541" 
d="M479 444v-444h-100v444h100zM491 578c0 -34 -29 -61 -62 -61s-62 27 -62 61s29 61 62 61s62 -27 62 -61zM307 648v-88c-15 10 -33 14 -49 14c-40 0 -65 -24 -65 -68v-62h97v-83h-97v-361h-98v361h-77v83h77v69c0 95 63 147 146 147c29 0 48 -4 66 -12z" />
    <glyph glyph-name="fl" unicode="&#xfb02;" horiz-adv-x="541" 
d="M479 650v-650h-100v650h100zM307 648v-88c-15 10 -33 14 -49 14c-40 0 -65 -24 -65 -68v-62h97v-83h-97v-361h-98v361h-77v83h77v69c0 95 63 147 146 147c29 0 48 -4 66 -12z" />
    <glyph glyph-name="endash" unicode="&#x2013;" horiz-adv-x="475" 
d="M40 223v79h395v-79h-395z" />
    <glyph glyph-name="dagger" unicode="&#x2020;" horiz-adv-x="332" 
d="M30 486v72h99v92h74v-92h99v-72h-99v-210h-74v210h-99z" />
    <glyph glyph-name="daggerdbl" unicode="&#x2021;" horiz-adv-x="345" 
d="M35 502v68h100v80h74v-80h101v-68h-101v-79h101v-67h-101v-80h-74v80h-100v67h100v79h-100z" />
    <glyph glyph-name="periodcentered" unicode="&#xb7;" horiz-adv-x="200" 
d="M32 263c0 39 30 69 68 69s68 -30 68 -69s-30 -69 -68 -69s-68 30 -68 69z" />
    <glyph glyph-name="paragraph" unicode="&#xb6;" horiz-adv-x="528" 
d="M379 -90v704h81v-704h-81zM227 -90v357c-103 0 -215 52 -215 174s112 173 215 173h81v-704h-81z" />
    <glyph glyph-name="bullet" unicode="&#x2022;" horiz-adv-x="352" 
d="M320 262c0 -84 -64 -143 -144 -143s-144 59 -144 143c0 85 64 144 144 144s144 -59 144 -144z" />
    <glyph glyph-name="quotesinglbase" unicode="&#x201a;" horiz-adv-x="193" 
d="M19 -108l69 108c-32 5 -56 28 -56 64c0 39 30 67 68 67s68 -26 68 -75c0 -26 -13 -56 -29 -80l-55 -84h-65z" />
    <glyph glyph-name="quotedblbase" unicode="&#x201e;" horiz-adv-x="374" 
d="M19 -108l69 108c-32 5 -56 28 -56 64c0 39 30 67 68 67s68 -26 68 -75c0 -26 -13 -56 -29 -80l-55 -84h-65zM200 -108l69 108c-32 5 -56 28 -56 64c0 39 30 67 68 67s68 -26 68 -75c0 -26 -13 -56 -29 -80l-55 -84h-65z" />
    <glyph glyph-name="quotedblright" unicode="&#x201d;" horiz-adv-x="374" 
d="M19 385l69 108c-32 5 -56 28 -56 64c0 39 30 67 68 67s68 -26 68 -75c0 -26 -13 -56 -29 -80l-55 -84h-65zM200 385l69 108c-32 5 -56 28 -56 64c0 39 30 67 68 67s68 -26 68 -75c0 -26 -13 -56 -29 -80l-55 -84h-65z" />
    <glyph glyph-name="guillemotright" unicode="&#xbb;" horiz-adv-x="397" 
d="M280 64h-90l92 158l-92 158h90l92 -158zM115 64h-90l92 158l-92 158h90l92 -158z" />
    <glyph glyph-name="ellipsis" unicode="&#x2026;" horiz-adv-x="640" 
d="M32 62c0 39 30 69 68 69s68 -30 68 -69s-30 -69 -68 -69s-68 30 -68 69zM252 62c0 39 30 69 68 69s68 -30 68 -69s-30 -69 -68 -69s-68 30 -68 69zM472 62c0 39 30 69 68 69s68 -30 68 -69s-30 -69 -68 -69s-68 30 -68 69z" />
    <glyph glyph-name="perthousand" unicode="&#x2030;" horiz-adv-x="972" 
d="M107 0l369 614h79l-369 -614h-79zM30 485c0 77 61 139 138 139s139 -62 139 -139s-62 -138 -139 -138s-138 61 -138 138zM632 129c0 -77 -61 -139 -138 -139s-139 62 -139 139s62 138 139 138s138 -61 138 -138zM557 129c0 35 -28 63 -63 63s-64 -28 -64 -63
s29 -64 64 -64s63 29 63 64zM942 129c0 -77 -61 -139 -138 -139s-139 62 -139 139s62 138 139 138s138 -61 138 -138zM867 129c0 35 -28 63 -63 63s-64 -28 -64 -63s29 -64 64 -64s63 29 63 64zM105 485c0 -35 28 -63 63 -63s64 28 64 63s-29 64 -64 64s-63 -29 -63 -64z
" />
    <glyph glyph-name="questiondown" unicode="&#xbf;" horiz-adv-x="441" 
d="M285 456c0 -39 -30 -69 -68 -69s-68 30 -68 69s30 69 68 69s68 -30 68 -69zM20 72c0 75 55 126 102 174c35 36 42 58 42 79h98c-3 -55 -17 -81 -61 -129c-34 -38 -79 -70 -79 -123c0 -51 35 -87 93 -87c62 0 94 44 98 102h108c-12 -114 -92 -194 -206 -194
c-123 0 -195 69 -195 178z" />
    <glyph glyph-name="grave" unicode="`" 
d="M340 513h-89l-91 137h103z" />
    <glyph glyph-name="acute" unicode="&#xb4;" 
d="M249 513h-89l77 137h103z" />
    <glyph glyph-name="circumflex" unicode="&#x2c6;" 
d="M296 646l94 -140h-84l-56 79l-56 -79h-84l94 140h92z" />
    <glyph glyph-name="tilde" unicode="&#x2dc;" 
d="M328 641h60c0 -78 -28 -131 -83 -131c-43 0 -72 52 -101 52c-21 0 -31 -18 -32 -49h-60c0 78 28 131 83 131c44 0 73 -52 101 -52c20 0 31 18 32 49z" />
    <glyph glyph-name="macron" unicode="&#xaf;" 
d="M137 524v79h225v-79h-225z" />
    <glyph glyph-name="breve" unicode="&#x2d8;" 
d="M250 495c-75 0 -125 48 -125 135h73c0 -38 16 -65 52 -65s52 27 52 65h73c0 -87 -50 -135 -125 -135z" />
    <glyph glyph-name="dotaccent" unicode="&#x2d9;" 
d="M312 578c0 -34 -29 -61 -62 -61s-62 27 -62 61s29 61 62 61s62 -27 62 -61z" />
    <glyph glyph-name="dieresis" unicode="&#xa8;" 
d="M114 572c0 34 26 59 59 59c32 0 58 -25 58 -59c0 -32 -26 -58 -58 -58c-33 0 -59 26 -59 58zM268 572c0 34 26 59 58 59s59 -25 59 -59c0 -32 -27 -58 -59 -58s-58 26 -58 58z" />
    <glyph glyph-name="ring" unicode="&#x2da;" 
d="M343 580c0 -52 -41 -91 -93 -91s-93 39 -93 91s41 91 93 91s93 -39 93 -91zM292 580c0 24 -19 42 -42 42s-42 -18 -42 -42s19 -42 42 -42s42 18 42 42z" />
    <glyph glyph-name="cedilla" unicode="&#xb8;" 
d="M258 -190h-93l71 137h99z" />
    <glyph glyph-name="hungarumlaut" unicode="&#x2dd;" 
d="M195 513h-80l60 137h82zM323 513h-80l60 137h82z" />
    <glyph glyph-name="ogonek" unicode="&#x2db;" 
d="M235 5h71c-38 -60 -52 -79 -52 -102c0 -14 8 -23 21 -23c12 0 21 5 37 16v-64c-16 -12 -35 -22 -59 -22c-52 0 -75 31 -75 72c0 43 28 78 57 123z" />
    <glyph glyph-name="caron" unicode="&#x2c7;" 
d="M390 646l-94 -140h-92l-94 140h84l56 -79l56 79h84z" />
    <glyph glyph-name="emdash" unicode="&#x2014;" horiz-adv-x="846" 
d="M40 223v79h766v-79h-766z" />
    <glyph glyph-name="AE" unicode="&#xc6;" horiz-adv-x="865" 
d="M375 614h445v-92h-279v-162h251v-91h-251v-176h279v-93h-381v170h-212l-99 -170h-108zM439 533l-160 -273h160v273z" />
    <glyph glyph-name="ordfeminine" unicode="&#xaa;" horiz-adv-x="299" 
d="M277 321h-85v16c-10 -10 -40 -21 -72 -21c-60 0 -110 34 -110 96c0 57 50 95 115 95c26 0 55 -9 67 -17v21c0 23 -14 43 -45 43c-22 0 -37 -10 -42 -27h-82c9 56 57 98 127 98c80 0 127 -43 127 -116v-188zM192 403v20c-7 14 -28 24 -50 24c-24 0 -48 -11 -48 -34
c0 -24 24 -34 48 -34c22 0 43 9 50 24z" />
    <glyph glyph-name="Lslash" unicode="&#x141;" horiz-adv-x="531" 
d="M30 207v95l64 27v285h104v-247l151 63v-95l-151 -62v-180h295v-93h-399v233z" />
    <glyph glyph-name="Oslash" unicode="&#xd8;" horiz-adv-x="647" 
d="M62 27l49 63c-45 55 -71 131 -71 217c0 184 117 317 283 317c62 0 117 -19 162 -52l43 56l60 -41l-51 -65c44 -55 70 -130 70 -215c0 -183 -118 -317 -284 -317c-61 0 -115 17 -160 49l-41 -53zM145 307c0 -53 9 -99 29 -136l253 327c-27 21 -62 33 -104 33
c-108 0 -178 -94 -178 -224zM502 307c0 51 -10 96 -28 133l-253 -326c27 -20 61 -31 102 -31c108 0 179 94 179 224z" />
    <glyph glyph-name="OE" unicode="&#x152;" horiz-adv-x="821" 
d="M776 614v-92h-279v-162h251v-91h-251v-176h279v-93h-443c-181 0 -298 120 -298 307s117 307 298 307h443zM337 93h58v429h-58c-129 0 -198 -83 -198 -215c0 -131 69 -214 198 -214z" />
    <glyph glyph-name="ordmasculine" unicode="&#xba;" horiz-adv-x="315" 
d="M305 470c0 -92 -60 -156 -148 -156c-87 0 -148 64 -148 156c0 91 61 155 148 155c88 0 148 -64 148 -155zM216 470c0 46 -21 80 -59 80c-37 0 -58 -34 -58 -80c0 -47 21 -80 58 -80c38 0 59 33 59 80z" />
    <glyph glyph-name="ae" unicode="&#xe6;" horiz-adv-x="731" 
d="M208 73c48 0 84 23 100 62v62h-92c-45 0 -90 -16 -90 -60s40 -64 82 -64zM605 138h92c-15 -88 -80 -148 -187 -148c-65 0 -119 24 -156 67c-38 -40 -90 -65 -155 -65c-91 0 -166 54 -166 139c0 90 77 142 175 142h100v16c0 45 -27 80 -84 80c-40 0 -67 -17 -78 -48h-94
c13 76 83 133 174 133c69 0 117 -24 144 -66c34 39 82 66 138 66c125 0 193 -89 193 -219v-36h-303c3 -78 48 -125 112 -125c48 0 84 21 95 64zM509 370c-55 0 -96 -34 -108 -98h201c-1 54 -32 98 -93 98z" />
    <glyph glyph-name="dotlessi" unicode="&#x131;" horiz-adv-x="224" 
d="M162 444v-444h-100v444h100z" />
    <glyph glyph-name="lslash" unicode="&#x142;" horiz-adv-x="260" 
d="M180 650v-229l55 33v-86l-55 -33v-335h-100v290l-50 -29v86l50 29v274h100z" />
    <glyph glyph-name="oslash" unicode="&#xf8;" horiz-adv-x="494" 
d="M37 2l49 63c-32 40 -50 94 -50 157c0 136 86 232 211 232c43 0 82 -12 114 -33l41 54l51 -36l-46 -60c32 -40 51 -94 51 -157c0 -136 -86 -232 -211 -232c-44 0 -83 12 -115 33l-44 -57zM360 222c0 29 -5 56 -14 78l-160 -206c17 -12 37 -18 61 -18c72 0 113 62 113 146z
M134 222c0 -29 4 -55 13 -77l159 206c-16 11 -36 17 -59 17c-72 0 -113 -62 -113 -146z" />
    <glyph glyph-name="oe" unicode="&#x153;" horiz-adv-x="782" 
d="M561 -10c-67 0 -123 26 -161 71c-37 -45 -92 -71 -158 -71c-125 0 -211 96 -211 232s86 232 211 232c66 0 121 -27 158 -72c38 45 93 72 159 72c125 0 193 -89 193 -219v-36h-303c3 -78 48 -125 112 -125c48 0 84 21 95 64h92c-15 -88 -80 -148 -187 -148zM353 222
c0 84 -39 146 -111 146s-111 -62 -111 -146s39 -146 111 -146s111 62 111 146zM560 370c-55 0 -96 -34 -108 -98h201c-1 54 -32 98 -93 98z" />
    <glyph glyph-name="germandbls" unicode="&#xdf;" horiz-adv-x="518" 
d="M371 365c66 -22 116 -88 116 -176c0 -124 -83 -194 -198 -194c-30 0 -53 2 -79 11v89c15 -6 41 -11 69 -11c72 0 113 43 113 115c0 73 -50 117 -137 117h-40v86h40c58 0 93 29 93 87c0 50 -35 86 -90 86c-69 0 -98 -51 -98 -115v-460h-98v459c0 121 77 201 195 201
c121 0 185 -72 185 -166c0 -66 -31 -112 -71 -129z" />
    <glyph glyph-name="onesuperior" unicode="&#xb9;" horiz-adv-x="234" 
d="M190 614v-335h-81v241l-89 -44v82l115 56h55z" />
    <glyph glyph-name="trademark" unicode="&#x2122;" horiz-adv-x="597" 
d="M20 557v57h223v-57h-78v-197h-67v197h-78zM440 360h-44l-54 150v-150h-63v254h82l57 -159l58 159h81v-254h-63v150z" />
    <glyph glyph-name="Eth" unicode="&#xd0;" horiz-adv-x="625" 
d="M30 273v88h55v253h207c181 0 298 -120 298 -307s-117 -307 -298 -307h-207v273h-55zM189 93h99c129 0 198 83 198 214c0 132 -69 215 -198 215h-99v-161h116v-88h-116v-180z" />
    <glyph glyph-name="onehalf" unicode="&#xbd;" horiz-adv-x="709" 
d="M596 614l-439 -614h-87l439 614h87zM205 614v-335h-81v241l-89 -44v82l115 56h55zM568 235c0 20 -14 33 -34 33c-22 0 -37 -19 -38 -39h-84c7 63 52 111 121 111c72 0 116 -41 116 -103c0 -43 -30 -73 -63 -107l-63 -61h128v-69h-237v55l111 113c29 29 43 47 43 67z" />
    <glyph glyph-name="plusminus" unicode="&#xb1;" horiz-adv-x="570" 
d="M246 539h79v-132h164v-79h-164v-132h-79v132h-164v79h164v132zM82 73v79h407v-79h-407z" />
    <glyph glyph-name="Thorn" unicode="&#xde;" horiz-adv-x="545" 
d="M305 123h-133v-123h-104v614h104v-106h133c127 0 210 -66 210 -193c0 -125 -83 -192 -210 -192zM412 315c0 61 -37 103 -109 103h-131v-205h131c72 0 109 43 109 102z" />
    <glyph glyph-name="onequarter" unicode="&#xbc;" horiz-adv-x="689" 
d="M596 614l-439 -614h-87l439 614h87zM205 614v-335h-81v241l-89 -44v82l115 56h55zM560 335l-97 -204h59v59h71v-59h48v-68h-48v-63h-71v63h-147v61l105 211h80z" />
    <glyph glyph-name="divide" unicode="&#xf7;" horiz-adv-x="564" 
d="M74 259v80h416v-80h-416zM219 467c0 35 28 64 63 64s64 -29 64 -64s-29 -63 -64 -63s-63 28 -63 63zM219 131c0 35 28 63 63 63s64 -28 64 -63s-29 -64 -64 -64s-63 29 -63 64z" />
    <glyph glyph-name="degree" unicode="&#xb0;" horiz-adv-x="354" 
d="M115 491c0 -35 28 -63 62 -63s62 28 62 63s-28 63 -62 63s-62 -28 -62 -63zM309 491c0 -74 -59 -133 -132 -133s-132 59 -132 133s59 133 132 133s132 -59 132 -133z" />
    <glyph glyph-name="thorn" unicode="&#xfe;" horiz-adv-x="512" 
d="M162 38v-208h-100v820h100v-244c20 25 64 48 113 48c130 0 206 -108 206 -232s-76 -232 -206 -232c-49 0 -93 23 -113 48zM162 306v-168c17 -35 55 -59 96 -59c77 0 123 61 123 143s-46 143 -123 143c-41 0 -79 -24 -96 -59z" />
    <glyph glyph-name="threequarters" unicode="&#xbe;" horiz-adv-x="726" 
d="M633 614l-439 -614h-87l439 614h87zM144 418v61h23c25 0 43 12 43 36c0 21 -15 36 -38 36c-24 0 -40 -19 -42 -41h-80c7 60 49 109 119 109c73 0 116 -41 116 -101c0 -30 -16 -58 -38 -70c28 -13 42 -41 42 -69c0 -62 -44 -105 -119 -105s-120 44 -125 111h83
c2 -25 18 -43 44 -43c25 0 42 14 42 39c0 24 -18 37 -44 37h-26zM597 335l-97 -204h59v59h71v-59h48v-68h-48v-63h-71v63h-147v61l105 211h80z" />
    <glyph glyph-name="twosuperior" unicode="&#xb2;" horiz-adv-x="288" 
d="M178 514c0 20 -14 33 -34 33c-22 0 -37 -19 -38 -39h-84c7 63 52 111 121 111c72 0 116 -41 116 -103c0 -43 -30 -73 -63 -107l-63 -61h128v-69h-237v55l111 113c29 29 43 47 43 67z" />
    <glyph glyph-name="registered" unicode="&#xae;" horiz-adv-x="407" 
d="M384 441c0 -106 -82 -183 -181 -183s-181 77 -181 183s82 183 181 183s181 -77 181 -183zM351 441c0 89 -66 152 -148 152s-148 -63 -148 -152s66 -152 148 -152s148 63 148 152zM200 409h-21v-63h-50v192h89c43 0 70 -24 70 -66c0 -30 -14 -50 -38 -58l45 -68h-55z
M240 472c0 14 -9 24 -26 24h-35v-47h35c17 0 26 10 26 23z" />
    <glyph glyph-name="minus" unicode="&#x2212;" horiz-adv-x="564" 
d="M74 259v80h416v-80h-416z" />
    <glyph glyph-name="eth" unicode="&#xf0;" horiz-adv-x="484" 
d="M140 488l-23 59l65 21c-33 27 -69 54 -103 78v4h130c23 -16 45 -33 66 -51l89 30l22 -59l-61 -21c79 -88 128 -200 128 -321c0 -143 -86 -238 -211 -238s-211 95 -211 229c0 135 86 230 199 230c41 0 69 -15 87 -32h4c-12 28 -44 64 -85 103zM353 219
c0 84 -39 144 -111 144s-111 -60 -111 -144c0 -83 39 -143 111 -143s111 60 111 143z" />
    <glyph glyph-name="multiply" unicode="&#xd7;" horiz-adv-x="496" 
d="M194 297l-123 121l55 55l121 -122l122 122l55 -55l-122 -121l122 -121l-55 -56l-122 122l-121 -122l-55 56z" />
    <glyph glyph-name="copyright" unicode="&#xa9;" horiz-adv-x="704" 
d="M669 307c0 -184 -143 -317 -317 -317s-317 133 -317 317s143 317 317 317s317 -133 317 -317zM622 307c0 157 -122 271 -270 271s-270 -114 -270 -271s122 -271 270 -271s270 114 270 271zM170 309c0 117 76 199 185 199c97 0 152 -57 166 -136h-98c-10 31 -33 47 -68 47
c-55 0 -88 -47 -88 -110s33 -110 88 -110c35 0 58 16 68 47h98c-14 -79 -70 -136 -166 -136c-109 0 -185 82 -185 199z" />
    <glyph glyph-name="Aacute" unicode="&#xc1;" horiz-adv-x="612" 
d="M256 614h100l236 -614h-106l-63 170h-235l-63 -170h-105zM305 487l-84 -227h168zM348 671h-98l77 117h116z" />
    <glyph glyph-name="Acircumflex" unicode="&#xc2;" horiz-adv-x="612" 
d="M256 614h100l236 -614h-106l-63 170h-235l-63 -170h-105zM352 795l94 -124h-89l-51 60l-51 -60h-89l94 124h92zM305 487l-84 -227h168z" />
    <glyph glyph-name="Adieresis" unicode="&#xc4;" horiz-adv-x="612" 
d="M256 614h100l236 -614h-106l-63 170h-235l-63 -170h-105zM305 487l-84 -227h168zM171 728c0 34 26 59 59 59c32 0 58 -25 58 -59c0 -32 -26 -58 -58 -58c-33 0 -59 26 -59 58zM325 728c0 34 26 59 58 59s59 -25 59 -59c0 -32 -27 -58 -59 -58s-58 26 -58 58z" />
    <glyph glyph-name="Agrave" unicode="&#xc0;" horiz-adv-x="612" 
d="M256 614h100l236 -614h-106l-63 170h-235l-63 -170h-105zM305 487l-84 -227h168zM359 671h-98l-95 117h116z" />
    <glyph glyph-name="Aring" unicode="&#xc5;" horiz-adv-x="612" 
d="M256 614h100l236 -614h-106l-63 170h-235l-63 -170h-105zM399 740c0 -52 -41 -91 -93 -91s-93 39 -93 91s41 91 93 91s93 -39 93 -91zM305 487l-84 -227h168zM348 740c0 24 -19 42 -42 42s-42 -18 -42 -42s19 -42 42 -42s42 18 42 42z" />
    <glyph glyph-name="Atilde" unicode="&#xc3;" horiz-adv-x="612" 
d="M256 614h100l236 -614h-106l-63 170h-235l-63 -170h-105zM389 797h60c0 -78 -28 -131 -83 -131c-48 0 -75 48 -111 48c-21 0 -31 -14 -32 -45h-60c0 78 28 131 83 131c48 0 75 -48 111 -48c20 0 31 14 32 45zM305 487l-84 -227h168z" />
    <glyph glyph-name="Ccedilla" unicode="&#xc7;" horiz-adv-x="597" 
d="M35 307c0 189 121 317 279 317c139 0 227 -80 250 -203h-102c-24 65 -66 109 -148 109c-108 0 -174 -94 -174 -223c0 -128 65 -223 174 -223c82 0 124 44 148 110h102c-23 -124 -112 -204 -250 -204c-158 0 -279 128 -279 317zM295 -190h-93l71 137h99z" />
    <glyph glyph-name="Eacute" unicode="&#xc9;" horiz-adv-x="514" 
d="M314 671h-98l77 117h116zM68 614h401v-92h-299v-162h271v-91h-271v-176h299v-93h-401v614z" />
    <glyph glyph-name="Ecircumflex" unicode="&#xca;" horiz-adv-x="514" 
d="M68 614h401v-92h-299v-162h271v-91h-271v-176h299v-93h-401v614zM318 795l94 -124h-89l-51 60l-51 -60h-89l94 124h92z" />
    <glyph glyph-name="Edieresis" unicode="&#xcb;" horiz-adv-x="514" 
d="M137 728c0 34 26 59 59 59c32 0 58 -25 58 -59c0 -32 -26 -58 -58 -58c-33 0 -59 26 -59 58zM291 728c0 34 26 59 58 59s59 -25 59 -59c0 -32 -27 -58 -59 -58s-58 26 -58 58zM68 614h401v-92h-299v-162h271v-91h-271v-176h299v-93h-401v614z" />
    <glyph glyph-name="Egrave" unicode="&#xc8;" horiz-adv-x="514" 
d="M325 671h-98l-95 117h116zM68 614h401v-92h-299v-162h271v-91h-271v-176h299v-93h-401v614z" />
    <glyph glyph-name="Iacute" unicode="&#xcd;" horiz-adv-x="240" 
d="M172 614v-614h-104v614h104zM162 671h-98l77 117h116z" />
    <glyph glyph-name="Icircumflex" unicode="&#xce;" horiz-adv-x="240" 
d="M172 614v-614h-104v614h104zM166 795l94 -124h-89l-51 60l-51 -60h-89l94 124h92z" />
    <glyph glyph-name="Idieresis" unicode="&#xcf;" horiz-adv-x="240" 
d="M172 614v-614h-104v614h104zM-15 728c0 34 26 59 59 59c32 0 58 -25 58 -59c0 -32 -26 -58 -58 -58c-33 0 -59 26 -59 58zM139 728c0 34 26 59 58 59s59 -25 59 -59c0 -32 -27 -58 -59 -58s-58 26 -58 58z" />
    <glyph glyph-name="Igrave" unicode="&#xcc;" horiz-adv-x="240" 
d="M172 614v-614h-104v614h104zM173 671h-98l-95 117h116z" />
    <glyph glyph-name="Ntilde" unicode="&#xd1;" horiz-adv-x="630" 
d="M398 797h60c0 -78 -28 -131 -83 -131c-48 0 -75 48 -111 48c-21 0 -31 -14 -32 -45h-60c0 78 28 131 83 131c48 0 75 -48 111 -48c20 0 31 14 32 45zM562 614v-614h-80l-314 447v-447h-100v614h98l296 -426v426h100z" />
    <glyph glyph-name="Oacute" unicode="&#xd3;" horiz-adv-x="637" 
d="M360 671h-98l77 117h116zM602 307c0 -183 -118 -317 -284 -317s-283 134 -283 317c0 184 117 317 283 317s284 -133 284 -317zM497 307c0 130 -71 224 -179 224s-178 -94 -178 -224s70 -224 178 -224s179 94 179 224z" />
    <glyph glyph-name="Ocircumflex" unicode="&#xd4;" horiz-adv-x="637" 
d="M602 307c0 -183 -118 -317 -284 -317s-283 134 -283 317c0 184 117 317 283 317s284 -133 284 -317zM497 307c0 130 -71 224 -179 224s-178 -94 -178 -224s70 -224 178 -224s179 94 179 224zM364 795l94 -124h-89l-51 60l-51 -60h-89l94 124h92z" />
    <glyph glyph-name="Odieresis" unicode="&#xd6;" horiz-adv-x="637" 
d="M183 728c0 34 26 59 59 59c32 0 58 -25 58 -59c0 -32 -26 -58 -58 -58c-33 0 -59 26 -59 58zM337 728c0 34 26 59 58 59s59 -25 59 -59c0 -32 -27 -58 -59 -58s-58 26 -58 58zM602 307c0 -183 -118 -317 -284 -317s-283 134 -283 317c0 184 117 317 283 317
s284 -133 284 -317zM497 307c0 130 -71 224 -179 224s-178 -94 -178 -224s70 -224 178 -224s179 94 179 224z" />
    <glyph glyph-name="Ograve" unicode="&#xd2;" horiz-adv-x="637" 
d="M371 671h-98l-95 117h116zM602 307c0 -183 -118 -317 -284 -317s-283 134 -283 317c0 184 117 317 283 317s284 -133 284 -317zM497 307c0 130 -71 224 -179 224s-178 -94 -178 -224s70 -224 178 -224s179 94 179 224z" />
    <glyph glyph-name="Otilde" unicode="&#xd5;" horiz-adv-x="637" 
d="M401 797h60c0 -78 -28 -131 -83 -131c-48 0 -75 48 -111 48c-21 0 -31 -14 -32 -45h-60c0 78 28 131 83 131c48 0 75 -48 111 -48c20 0 31 14 32 45zM602 307c0 -183 -118 -317 -284 -317s-283 134 -283 317c0 184 117 317 283 317s284 -133 284 -317zM497 307
c0 130 -71 224 -179 224s-178 -94 -178 -224s70 -224 178 -224s179 94 179 224z" />
    <glyph glyph-name="Scaron" unicode="&#x160;" horiz-adv-x="519" 
d="M213 671l-94 124h89l51 -60l51 60h89l-94 -124h-92zM20 170h106c20 -63 72 -92 139 -92c72 0 119 34 119 91c0 43 -25 68 -89 83l-104 25c-85 20 -153 66 -153 165c0 104 85 182 209 182c133 0 211 -68 233 -170h-104c-16 46 -55 82 -128 82c-66 0 -111 -34 -111 -85
c0 -41 26 -67 81 -80l107 -25c96 -22 159 -78 159 -170c0 -115 -92 -186 -219 -186c-130 0 -223 66 -245 180z" />
    <glyph glyph-name="Uacute" unicode="&#xda;" horiz-adv-x="608" 
d="M346 671h-98l77 117h116zM304 -10c-146 0 -246 86 -246 255v369h104v-358c0 -118 50 -173 142 -173s142 55 142 173v358h104v-370c0 -168 -99 -254 -246 -254z" />
    <glyph glyph-name="Ucircumflex" unicode="&#xdb;" horiz-adv-x="608" 
d="M304 -10c-146 0 -246 86 -246 255v369h104v-358c0 -118 50 -173 142 -173s142 55 142 173v358h104v-370c0 -168 -99 -254 -246 -254zM350 795l94 -124h-89l-51 60l-51 -60h-89l94 124h92z" />
    <glyph glyph-name="Udieresis" unicode="&#xdc;" horiz-adv-x="608" 
d="M169 728c0 34 26 59 59 59c32 0 58 -25 58 -59c0 -32 -26 -58 -58 -58c-33 0 -59 26 -59 58zM323 728c0 34 26 59 58 59s59 -25 59 -59c0 -32 -27 -58 -59 -58s-58 26 -58 58zM304 -10c-146 0 -246 86 -246 255v369h104v-358c0 -118 50 -173 142 -173s142 55 142 173v358
h104v-370c0 -168 -99 -254 -246 -254z" />
    <glyph glyph-name="Ugrave" unicode="&#xd9;" horiz-adv-x="608" 
d="M357 671h-98l-95 117h116zM304 -10c-146 0 -246 86 -246 255v369h104v-358c0 -118 50 -173 142 -173s142 55 142 173v358h104v-370c0 -168 -99 -254 -246 -254z" />
    <glyph glyph-name="Yacute" unicode="&#xdd;" horiz-adv-x="578" 
d="M291 339l162 275h110l-223 -369v-245h-103v245l-222 369h113zM331 671h-98l77 117h116z" />
    <glyph glyph-name="Ydieresis" unicode="&#x178;" horiz-adv-x="578" 
d="M291 339l162 275h110l-223 -369v-245h-103v245l-222 369h113zM154 728c0 34 26 59 59 59c32 0 58 -25 58 -59c0 -32 -26 -58 -58 -58c-33 0 -59 26 -59 58zM308 728c0 34 26 59 58 59s59 -25 59 -59c0 -32 -27 -58 -59 -58s-58 26 -58 58z" />
    <glyph glyph-name="Zcaron" unicode="&#x17d;" horiz-adv-x="549" 
d="M249 671l-94 124h89l51 -60l51 60h89l-94 -124h-92zM504 93v-93h-459v73l324 449h-319v92h449v-72l-323 -449h328z" />
    <glyph glyph-name="aacute" unicode="&#xe1;" horiz-adv-x="460" 
d="M404 0h-95v25c-15 -15 -60 -33 -110 -33c-91 0 -166 54 -166 145c0 84 75 143 173 143c40 0 85 -14 103 -27v36c0 45 -28 80 -85 80c-40 0 -65 -17 -76 -48h-96c13 76 83 133 174 133c112 0 178 -62 178 -163v-291zM309 118v37c-11 28 -51 45 -91 45
c-45 0 -92 -19 -92 -63c0 -45 47 -64 92 -64c40 0 80 17 91 45zM276 513h-89l77 137h103z" />
    <glyph glyph-name="acircumflex" unicode="&#xe2;" horiz-adv-x="460" 
d="M281 646l94 -140h-84l-56 79l-56 -79h-84l94 140h92zM404 0h-95v25c-15 -15 -60 -33 -110 -33c-91 0 -166 54 -166 145c0 84 75 143 173 143c40 0 85 -14 103 -27v36c0 45 -28 80 -85 80c-40 0 -65 -17 -76 -48h-96c13 76 83 133 174 133c112 0 178 -62 178 -163v-291z
M309 118v37c-11 28 -51 45 -91 45c-45 0 -92 -19 -92 -63c0 -45 47 -64 92 -64c40 0 80 17 91 45z" />
    <glyph glyph-name="adieresis" unicode="&#xe4;" horiz-adv-x="460" 
d="M101 572c0 34 26 59 59 59c32 0 58 -25 58 -59c0 -32 -26 -58 -58 -58c-33 0 -59 26 -59 58zM255 572c0 34 26 59 58 59s59 -25 59 -59c0 -32 -27 -58 -59 -58s-58 26 -58 58zM404 0h-95v25c-15 -15 -60 -33 -110 -33c-91 0 -166 54 -166 145c0 84 75 143 173 143
c40 0 85 -14 103 -27v36c0 45 -28 80 -85 80c-40 0 -65 -17 -76 -48h-96c13 76 83 133 174 133c112 0 178 -62 178 -163v-291zM309 118v37c-11 28 -51 45 -91 45c-45 0 -92 -19 -92 -63c0 -45 47 -64 92 -64c40 0 80 17 91 45z" />
    <glyph glyph-name="agrave" unicode="&#xe0;" horiz-adv-x="460" 
d="M404 0h-95v25c-15 -15 -60 -33 -110 -33c-91 0 -166 54 -166 145c0 84 75 143 173 143c40 0 85 -14 103 -27v36c0 45 -28 80 -85 80c-40 0 -65 -17 -76 -48h-96c13 76 83 133 174 133c112 0 178 -62 178 -163v-291zM309 118v37c-11 28 -51 45 -91 45
c-45 0 -92 -19 -92 -63c0 -45 47 -64 92 -64c40 0 80 17 91 45zM288 513h-89l-91 137h103z" />
    <glyph glyph-name="aring" unicode="&#xe5;" horiz-adv-x="460" 
d="M404 0h-95v25c-15 -15 -60 -33 -110 -33c-91 0 -166 54 -166 145c0 84 75 143 173 143c40 0 85 -14 103 -27v36c0 45 -28 80 -85 80c-40 0 -65 -17 -76 -48h-96c13 76 83 133 174 133c112 0 178 -62 178 -163v-291zM309 118v37c-11 28 -51 45 -91 45
c-45 0 -92 -19 -92 -63c0 -45 47 -64 92 -64c40 0 80 17 91 45zM326 580c0 -52 -41 -91 -93 -91s-93 39 -93 91s41 91 93 91s93 -39 93 -91zM275 580c0 24 -19 42 -42 42s-42 -18 -42 -42s19 -42 42 -42s42 18 42 42z" />
    <glyph glyph-name="atilde" unicode="&#xe3;" horiz-adv-x="460" 
d="M404 0h-95v25c-15 -15 -60 -33 -110 -33c-91 0 -166 54 -166 145c0 84 75 143 173 143c40 0 85 -14 103 -27v36c0 45 -28 80 -85 80c-40 0 -65 -17 -76 -48h-96c13 76 83 133 174 133c112 0 178 -62 178 -163v-291zM309 118v37c-11 28 -51 45 -91 45
c-45 0 -92 -19 -92 -63c0 -45 47 -64 92 -64c40 0 80 17 91 45zM312 641h60c0 -78 -28 -131 -83 -131c-43 0 -72 52 -101 52c-21 0 -31 -18 -32 -49h-60c0 78 28 131 83 131c44 0 73 -52 101 -52c20 0 31 18 32 49z" />
    <glyph glyph-name="ccedilla" unicode="&#xe7;" horiz-adv-x="451" 
d="M31 222c0 138 87 232 207 232c106 0 173 -60 186 -149h-100c-8 40 -41 62 -85 62c-67 0 -108 -61 -108 -145s41 -145 108 -145c44 0 77 22 85 62h100c-13 -89 -80 -149 -186 -149c-120 0 -207 94 -207 232zM221 -190h-93l71 137h99z" />
    <glyph glyph-name="eacute" unicode="&#xe9;" horiz-adv-x="462" 
d="M283 513h-89l77 137h103zM336 138h92c-15 -88 -80 -148 -187 -148c-124 0 -210 94 -210 231c0 133 87 233 208 233c125 0 193 -89 193 -219v-36h-303c3 -78 48 -125 112 -125c48 0 84 21 95 64zM240 370c-55 0 -96 -34 -108 -98h201c-1 54 -32 98 -93 98z" />
    <glyph glyph-name="ecircumflex" unicode="&#xea;" horiz-adv-x="462" 
d="M289 646l94 -140h-84l-56 79l-56 -79h-84l94 140h92zM336 138h92c-15 -88 -80 -148 -187 -148c-124 0 -210 94 -210 231c0 133 87 233 208 233c125 0 193 -89 193 -219v-36h-303c3 -78 48 -125 112 -125c48 0 84 21 95 64zM240 370c-55 0 -96 -34 -108 -98h201
c-1 54 -32 98 -93 98z" />
    <glyph glyph-name="edieresis" unicode="&#xeb;" horiz-adv-x="462" 
d="M109 572c0 34 26 59 59 59c32 0 58 -25 58 -59c0 -32 -26 -58 -58 -58c-33 0 -59 26 -59 58zM263 572c0 34 26 59 58 59s59 -25 59 -59c0 -32 -27 -58 -59 -58s-58 26 -58 58zM336 138h92c-15 -88 -80 -148 -187 -148c-124 0 -210 94 -210 231c0 133 87 233 208 233
c125 0 193 -89 193 -219v-36h-303c3 -78 48 -125 112 -125c48 0 84 21 95 64zM240 370c-55 0 -96 -34 -108 -98h201c-1 54 -32 98 -93 98z" />
    <glyph glyph-name="egrave" unicode="&#xe8;" horiz-adv-x="462" 
d="M336 138h92c-15 -88 -80 -148 -187 -148c-124 0 -210 94 -210 231c0 133 87 233 208 233c125 0 193 -89 193 -219v-36h-303c3 -78 48 -125 112 -125c48 0 84 21 95 64zM240 370c-55 0 -96 -34 -108 -98h201c-1 54 -32 98 -93 98zM294 513h-89l-91 137h103z" />
    <glyph glyph-name="iacute" unicode="&#xed;" horiz-adv-x="224" 
d="M151 513h-89l77 137h103zM162 444v-444h-100v444h100z" />
    <glyph glyph-name="icircumflex" unicode="&#xee;" horiz-adv-x="224" 
d="M158 646l76 -140h-82l-40 76l-40 -76h-82l76 140h92zM162 444v-444h-100v444h100z" />
    <glyph glyph-name="idieresis" unicode="&#xef;" horiz-adv-x="224" 
d="M-16 572c0 34 26 59 59 59c32 0 58 -25 58 -59c0 -32 -26 -58 -58 -58c-33 0 -59 26 -59 58zM124 572c0 34 26 59 58 59s59 -25 59 -59c0 -32 -27 -58 -59 -58s-58 26 -58 58zM162 444v-444h-100v444h100z" />
    <glyph glyph-name="igrave" unicode="&#xec;" horiz-adv-x="224" 
d="M162 444v-444h-100v444h100zM162 513h-89l-91 137h103z" />
    <glyph glyph-name="ntilde" unicode="&#xf1;" horiz-adv-x="495" 
d="M62 0v444h100v-42c24 28 68 52 120 52c101 0 157 -67 157 -165v-289h-100v272c0 55 -27 91 -84 91c-43 0 -82 -27 -93 -71v-292h-100zM329 641h60c0 -78 -28 -131 -83 -131c-43 0 -72 52 -101 52c-21 0 -31 -18 -32 -49h-60c0 78 28 131 83 131c44 0 73 -52 101 -52
c20 0 31 18 32 49z" />
    <glyph glyph-name="oacute" unicode="&#xf3;" horiz-adv-x="484" 
d="M281 513h-89l77 137h103zM453 222c0 -136 -86 -232 -211 -232s-211 96 -211 232s86 232 211 232s211 -96 211 -232zM353 222c0 84 -39 146 -111 146s-111 -62 -111 -146s39 -146 111 -146s111 62 111 146z" />
    <glyph glyph-name="ocircumflex" unicode="&#xf4;" horiz-adv-x="484" 
d="M288 646l94 -140h-84l-56 79l-56 -79h-84l94 140h92zM453 222c0 -136 -86 -232 -211 -232s-211 96 -211 232s86 232 211 232s211 -96 211 -232zM353 222c0 84 -39 146 -111 146s-111 -62 -111 -146s39 -146 111 -146s111 62 111 146z" />
    <glyph glyph-name="odieresis" unicode="&#xf6;" horiz-adv-x="484" 
d="M107 572c0 34 26 59 59 59c32 0 58 -25 58 -59c0 -32 -26 -58 -58 -58c-33 0 -59 26 -59 58zM261 572c0 34 26 59 58 59s59 -25 59 -59c0 -32 -27 -58 -59 -58s-58 26 -58 58zM453 222c0 -136 -86 -232 -211 -232s-211 96 -211 232s86 232 211 232s211 -96 211 -232z
M353 222c0 84 -39 146 -111 146s-111 -62 -111 -146s39 -146 111 -146s111 62 111 146z" />
    <glyph glyph-name="ograve" unicode="&#xf2;" horiz-adv-x="484" 
d="M453 222c0 -136 -86 -232 -211 -232s-211 96 -211 232s86 232 211 232s211 -96 211 -232zM353 222c0 84 -39 146 -111 146s-111 -62 -111 -146s39 -146 111 -146s111 62 111 146zM292 513h-89l-91 137h103z" />
    <glyph glyph-name="otilde" unicode="&#xf5;" horiz-adv-x="484" 
d="M453 222c0 -136 -86 -232 -211 -232s-211 96 -211 232s86 232 211 232s211 -96 211 -232zM353 222c0 84 -39 146 -111 146s-111 -62 -111 -146s39 -146 111 -146s111 62 111 146zM320 641h60c0 -78 -28 -131 -83 -131c-43 0 -72 52 -101 52c-21 0 -31 -18 -32 -49h-60
c0 78 28 131 83 131c44 0 73 -52 101 -52c20 0 31 18 32 49z" />
    <glyph glyph-name="scaron" unicode="&#x161;" horiz-adv-x="429" 
d="M356 646l-94 -140h-92l-94 140h84l56 -79l56 79h84zM31 128h102c11 -37 44 -56 88 -56c46 0 76 18 76 53c0 24 -15 37 -52 46l-92 22c-63 15 -110 49 -110 122c0 80 71 139 168 139c104 0 163 -50 178 -131h-98c-9 29 -35 49 -81 49c-35 0 -71 -16 -71 -51
c0 -20 14 -33 46 -41l94 -22c76 -18 114 -61 114 -126c0 -88 -73 -142 -173 -142c-104 0 -176 52 -189 138z" />
    <glyph glyph-name="uacute" unicode="&#xfa;" horiz-adv-x="493" 
d="M286 513h-89l77 137h103zM431 444v-444h-100v42c-24 -28 -67 -52 -119 -52c-101 0 -156 67 -156 165v289h100v-272c0 -55 26 -91 83 -91c43 0 81 27 92 71v292h100z" />
    <glyph glyph-name="ucircumflex" unicode="&#xfb;" horiz-adv-x="493" 
d="M293 646l94 -140h-84l-56 79l-56 -79h-84l94 140h92zM431 444v-444h-100v42c-24 -28 -67 -52 -119 -52c-101 0 -156 67 -156 165v289h100v-272c0 -55 26 -91 83 -91c43 0 81 27 92 71v292h100z" />
    <glyph glyph-name="udieresis" unicode="&#xfc;" horiz-adv-x="493" 
d="M112 572c0 34 26 59 59 59c32 0 58 -25 58 -59c0 -32 -26 -58 -58 -58c-33 0 -59 26 -59 58zM266 572c0 34 26 59 58 59s59 -25 59 -59c0 -32 -27 -58 -59 -58s-58 26 -58 58zM431 444v-444h-100v42c-24 -28 -67 -52 -119 -52c-101 0 -156 67 -156 165v289h100v-272
c0 -55 26 -91 83 -91c43 0 81 27 92 71v292h100z" />
    <glyph glyph-name="ugrave" unicode="&#xf9;" horiz-adv-x="493" 
d="M431 444v-444h-100v42c-24 -28 -67 -52 -119 -52c-101 0 -156 67 -156 165v289h100v-272c0 -55 26 -91 83 -91c43 0 81 27 92 71v292h100zM297 513h-89l-91 137h103z" />
    <glyph glyph-name="yacute" unicode="&#xfd;" horiz-adv-x="476" 
d="M224 -170h-97l63 158l-172 456h107l116 -327l114 327h103zM277 513h-89l77 137h103z" />
    <glyph glyph-name="ydieresis" unicode="&#xff;" horiz-adv-x="476" 
d="M224 -170h-97l63 158l-172 456h107l116 -327l114 327h103zM103 572c0 34 26 59 59 59c32 0 58 -25 58 -59c0 -32 -26 -58 -58 -58c-33 0 -59 26 -59 58zM257 572c0 34 26 59 58 59s59 -25 59 -59c0 -32 -27 -58 -59 -58s-58 26 -58 58z" />
    <glyph glyph-name="zcaron" unicode="&#x17e;" horiz-adv-x="450" 
d="M374 646l-94 -140h-92l-94 140h84l56 -79l56 79h84zM403 83v-83h-360v63l228 298h-218v83h346v-63l-227 -298h231z" />
    <glyph glyph-name="Euro" unicode="&#x20ac;" horiz-adv-x="547" 
d="M28 336v77h61c31 129 121 211 233 211c106 0 179 -60 203 -170h-95c-14 49 -52 79 -108 79c-65 0 -111 -47 -132 -120h189l-15 -77h-186c-1 -10 -1 -19 -1 -29c0 -12 0 -23 1 -34h178l-16 -77h-148c21 -70 66 -115 130 -115c56 0 94 30 108 79h95
c-24 -110 -97 -170 -203 -170c-111 0 -199 79 -232 206h-62v77h50c-1 11 -1 22 -1 34c0 10 0 19 1 29h-50z" />
    <glyph glyph-name="approxequal" unicode="&#x2248;" horiz-adv-x="578" 
d="M82 312v76c40 26 77 37 112 37c70 0 118 -36 188 -36c35 0 73 11 115 38v-76c-42 -27 -80 -38 -115 -38c-70 0 -118 37 -188 37c-35 0 -72 -11 -112 -38zM82 174v75c40 27 77 38 112 38c70 0 118 -37 188 -37c35 0 73 10 115 38v-76c-42 -27 -80 -37 -115 -37
c-70 0 -118 36 -188 36c-35 0 -72 -11 -112 -37z" />
    <glyph glyph-name="notequal" unicode="&#x2260;" horiz-adv-x="578" 
d="M82 337v73h247l67 96h72l-67 -96h96v-73h-146l-53 -76h199v-73h-249l-66 -95h-72l66 95h-94v73h144l53 76h-197z" />
    <glyph glyph-name="lessequal" unicode="&#x2264;" horiz-adv-x="453" 
d="M68 307v101l317 126v-88l-235 -88l235 -89v-87zM68 73v79h317v-79h-317z" />
    <glyph glyph-name="greaterequal" unicode="&#x2265;" horiz-adv-x="453" 
d="M385 408v-101l-317 -125v87l234 89l-234 88v88zM385 152v-79h-317v79h317z" />
    <glyph glyph-name="uni00A0" unicode="&#xa0;" horiz-adv-x="221" 
 />
    <glyph glyph-name="threesuperior" unicode="&#xb3;" horiz-adv-x="290" 
d="M118 418v61h23c25 0 43 12 43 36c0 21 -15 36 -38 36c-24 0 -40 -19 -42 -41h-80c7 60 49 109 119 109c73 0 116 -41 116 -101c0 -30 -16 -58 -38 -70c28 -13 42 -41 42 -69c0 -62 -44 -105 -119 -105s-120 44 -125 111h83c2 -25 18 -43 44 -43c25 0 42 14 42 39
c0 24 -18 37 -44 37h-26z" />
    <glyph glyph-name="Tcedilla" unicode="&#x162;" horiz-adv-x="572" 
d="M233 -217l42 60c-29 4 -51 25 -51 55c0 34 28 58 63 58c34 0 61 -24 61 -62c0 -27 -14 -50 -28 -71l-27 -40h-60zM30 522v92h512v-92h-204v-522h-104v522h-204z" />
    <glyph glyph-name="tcedilla" unicode="&#x163;" horiz-adv-x="335" 
d="M85 120v241h-70v83h70v119h100v-119h100v-83h-100v-230c0 -36 20 -52 53 -52c20 0 43 8 57 18v-91c-17 -10 -44 -16 -75 -16c-79 0 -135 42 -135 130zM142 -217l42 60c-29 4 -51 25 -51 55c0 34 28 58 63 58c34 0 61 -24 61 -62c0 -27 -14 -50 -28 -71l-27 -40h-60z" />
    <glyph glyph-name="i.dot" horiz-adv-x="224" 
d="M162 444v-444h-100v444h100zM174 578c0 -34 -29 -61 -62 -61s-62 27 -62 61s29 61 62 61s62 -27 62 -61z" />
    <glyph glyph-name="uni0237" unicode="&#x237;" horiz-adv-x="222" 
d="M162 444v-484c0 -88 -49 -140 -145 -140c-10 0 -30 1 -40 5v84c7 -2 20 -4 30 -4c38 0 55 20 55 62v477h100z" />
    <glyph glyph-name="space_uni0326" 
d="M197 -217l42 60c-29 4 -51 25 -51 55c0 34 28 58 63 58c34 0 61 -24 61 -62c0 -27 -14 -50 -28 -71l-27 -40h-60z" />
    <glyph glyph-name="space_uni0326.alt" 
d="M305 696l-43 -62c30 -4 52 -26 52 -57c0 -35 -29 -60 -65 -60c-35 0 -63 25 -63 64c0 28 14 52 29 74l28 41h62z" />
    <glyph glyph-name="space_dotbelowcomb" 
d="M312 -105c0 -34 -29 -61 -62 -61s-62 27 -62 61s29 61 62 61s62 -27 62 -61z" />
    <glyph glyph-name="uni2117" unicode="&#x2117;" horiz-adv-x="704" 
d="M669 307c0 -184 -143 -317 -317 -317s-317 133 -317 317s143 317 317 317s317 -133 317 -317zM622 307c0 157 -122 271 -270 271s-270 -114 -270 -271s122 -271 270 -271s270 114 270 271zM389 239h-72v-115h-90v369h162c80 0 134 -45 134 -127s-54 -127 -134 -127z
M434 366c0 28 -16 48 -51 48h-66v-96h66c35 0 51 20 51 48z" />
    <glyph glyph-name=".null" horiz-adv-x="0" 
 />
    <glyph glyph-name="Abreve" unicode="&#x102;" horiz-adv-x="612" 
d="M256 614h100l236 -614h-106l-63 170h-235l-63 -170h-105zM306 667c-77 0 -127 44 -127 124h73c0 -35 22 -51 54 -51c33 0 55 16 55 51h73c0 -80 -50 -124 -128 -124zM305 487l-84 -227h168z" />
    <glyph glyph-name="Amacron" unicode="&#x100;" horiz-adv-x="612" 
d="M256 614h100l236 -614h-106l-63 170h-235l-63 -170h-105zM305 487l-84 -227h168zM194 671v79h225v-79h-225z" />
    <glyph glyph-name="Aogonek" unicode="&#x104;" horiz-adv-x="612" 
d="M256 614h100l236 -614c-38 -60 -49 -74 -49 -97c0 -14 8 -23 21 -23c12 0 21 5 37 16v-64c-16 -12 -35 -22 -59 -22c-52 0 -75 31 -75 72c0 42 26 76 54 118h-35l-63 170h-235l-63 -170h-105zM305 487l-84 -227h168z" />
    <glyph glyph-name="Aringacute" unicode="&#x1fa;" horiz-adv-x="612" 
d="M256 614h100l236 -614h-106l-63 170h-235l-63 -170h-105zM398 710c0 -43 -41 -77 -93 -77s-93 34 -93 77s41 77 93 77s93 -34 93 -77zM305 487l-84 -227h168zM361 806h-98l53 88h116zM347 710c0 20 -19 32 -42 32s-42 -12 -42 -32s19 -32 42 -32s42 12 42 32z" />
    <glyph glyph-name="AEacute" unicode="&#x1fc;" horiz-adv-x="865" 
d="M375 614h445v-92h-279v-162h251v-91h-251v-176h279v-93h-381v170h-212l-99 -170h-108zM439 533l-160 -273h160v273zM620 671h-98l77 117h116z" />
    <glyph glyph-name="Cacute" unicode="&#x106;" horiz-adv-x="597" 
d="M35 307c0 189 121 317 279 317c139 0 227 -80 250 -203h-102c-24 65 -66 109 -148 109c-108 0 -174 -94 -174 -223c0 -128 65 -223 174 -223c82 0 124 44 148 110h102c-23 -124 -112 -204 -250 -204c-158 0 -279 128 -279 317zM363 671h-98l77 117h116z" />
    <glyph glyph-name="Ccaron" unicode="&#x10c;" horiz-adv-x="597" 
d="M271 671l-94 124h89l51 -60l51 60h89l-94 -124h-92zM35 307c0 189 121 317 279 317c139 0 227 -80 250 -203h-102c-24 65 -66 109 -148 109c-108 0 -174 -94 -174 -223c0 -128 65 -223 174 -223c82 0 124 44 148 110h102c-23 -124 -112 -204 -250 -204
c-158 0 -279 128 -279 317z" />
    <glyph glyph-name="Ccircumflex" unicode="&#x108;" horiz-adv-x="597" 
d="M35 307c0 189 121 317 279 317c139 0 227 -80 250 -203h-102c-24 65 -66 109 -148 109c-108 0 -174 -94 -174 -223c0 -128 65 -223 174 -223c82 0 124 44 148 110h102c-23 -124 -112 -204 -250 -204c-158 0 -279 128 -279 317zM368 795l94 -124h-89l-51 60l-51 -60h-89
l94 124h92z" />
    <glyph glyph-name="Cdotaccent" unicode="&#x10a;" horiz-adv-x="597" 
d="M379 728c0 -34 -29 -61 -62 -61s-62 27 -62 61s29 61 62 61s62 -27 62 -61zM35 307c0 189 121 317 279 317c139 0 227 -80 250 -203h-102c-24 65 -66 109 -148 109c-108 0 -174 -94 -174 -223c0 -128 65 -223 174 -223c82 0 124 44 148 110h102
c-23 -124 -112 -204 -250 -204c-158 0 -279 128 -279 317z" />
    <glyph glyph-name="Dcaron" unicode="&#x10e;" horiz-adv-x="608" 
d="M236 671l-94 124h89l51 -60l51 60h89l-94 -124h-92zM172 93h99c129 0 198 83 198 214c0 132 -69 215 -198 215h-99v-429zM68 0v614h207c181 0 298 -120 298 -307s-117 -307 -298 -307h-207z" />
    <glyph glyph-name="Dcroat" unicode="&#x110;" horiz-adv-x="625" 
d="M30 273v88h55v253h207c181 0 298 -120 298 -307s-117 -307 -298 -307h-207v273h-55zM189 93h99c129 0 198 83 198 214c0 132 -69 215 -198 215h-99v-161h116v-88h-116v-180z" />
    <glyph glyph-name="Ebreve" unicode="&#x114;" horiz-adv-x="514" 
d="M272 667c-77 0 -127 44 -127 124h73c0 -35 22 -51 54 -51c33 0 55 16 55 51h73c0 -80 -50 -124 -128 -124zM68 614h401v-92h-299v-162h271v-91h-271v-176h299v-93h-401v614z" />
    <glyph glyph-name="Ecaron" unicode="&#x11a;" horiz-adv-x="514" 
d="M232 671l-94 124h89l51 -60l51 60h89l-94 -124h-92zM68 614h401v-92h-299v-162h271v-91h-271v-176h299v-93h-401v614z" />
    <glyph glyph-name="Edotaccent" unicode="&#x116;" horiz-adv-x="514" 
d="M334 728c0 -34 -29 -61 -62 -61s-62 27 -62 61s29 61 62 61s62 -27 62 -61zM68 614h401v-92h-299v-162h271v-91h-271v-176h299v-93h-401v614z" />
    <glyph glyph-name="Emacron" unicode="&#x112;" horiz-adv-x="514" 
d="M160 671v79h225v-79h-225zM68 614h401v-92h-299v-162h271v-91h-271v-176h299v-93h-401v614z" />
    <glyph glyph-name="Eogonek" unicode="&#x118;" horiz-adv-x="514" 
d="M68 614h401v-92h-299v-162h271v-91h-271v-176h299v-93h-34c-36 -56 -49 -74 -49 -97c0 -14 8 -23 21 -23c12 0 21 5 37 16v-64c-16 -12 -35 -22 -59 -22c-52 0 -75 31 -75 72c0 42 26 76 54 118h-296v614z" />
    <glyph glyph-name="Gbreve" unicode="&#x11e;" horiz-adv-x="620" 
d="M321 667c-77 0 -127 44 -127 124h73c0 -35 22 -51 54 -51c33 0 55 16 55 51h73c0 -80 -50 -124 -128 -124zM486 228h-134v89h233v-48c0 -170 -111 -279 -261 -279c-165 0 -289 128 -289 317s125 317 285 317c141 0 228 -80 252 -202h-104c-25 66 -66 108 -148 108
c-109 0 -180 -93 -180 -223s70 -225 184 -225c93 0 149 60 162 146z" />
    <glyph glyph-name="Gcircumflex" unicode="&#x11c;" horiz-adv-x="620" 
d="M365 795l94 -124h-89l-51 60l-51 -60h-89l94 124h92zM486 228h-134v89h233v-48c0 -170 -111 -279 -261 -279c-165 0 -289 128 -289 317s125 317 285 317c141 0 228 -80 252 -202h-104c-25 66 -66 108 -148 108c-109 0 -180 -93 -180 -223s70 -225 184 -225
c93 0 149 60 162 146z" />
    <glyph glyph-name="Gcommaaccent" unicode="&#x122;" horiz-adv-x="620" 
d="M265 -217l42 60c-29 4 -51 25 -51 55c0 34 28 58 63 58c34 0 61 -24 61 -62c0 -27 -14 -50 -28 -71l-27 -40h-60zM486 228h-134v89h233v-48c0 -170 -111 -279 -261 -279c-165 0 -289 128 -289 317s125 317 285 317c141 0 228 -80 252 -202h-104c-25 66 -66 108 -148 108
c-109 0 -180 -93 -180 -223s70 -225 184 -225c93 0 149 60 162 146z" />
    <glyph glyph-name="Gdotaccent" unicode="&#x120;" horiz-adv-x="620" 
d="M384 728c0 -34 -29 -61 -62 -61s-62 27 -62 61s29 61 62 61s62 -27 62 -61zM486 228h-134v89h233v-48c0 -170 -111 -279 -261 -279c-165 0 -289 128 -289 317s125 317 285 317c141 0 228 -80 252 -202h-104c-25 66 -66 108 -148 108c-109 0 -180 -93 -180 -223
s70 -225 184 -225c93 0 149 60 162 146z" />
    <glyph glyph-name="Hbar" unicode="&#x126;" horiz-adv-x="683" 
d="M30 423v86h53v105h104v-105h309v105h104v-105h53v-86h-53v-423h-104v229h-309v-229h-104v423h-53zM187 315h309v108h-309v-108z" />
    <glyph glyph-name="Hcircumflex" unicode="&#x124;" horiz-adv-x="653" 
d="M481 614h104v-614h-104v269h-309v-269h-104v614h104v-253h309v253zM372 795l94 -124h-89l-51 60l-51 -60h-89l94 124h92z" />
    <glyph glyph-name="Ibreve" unicode="&#x12c;" horiz-adv-x="240" 
d="M172 614v-614h-104v614h104zM120 667c-77 0 -127 44 -127 124h73c0 -35 22 -51 54 -51c33 0 55 16 55 51h73c0 -80 -50 -124 -128 -124z" />
    <glyph glyph-name="Idotaccent" unicode="&#x130;" horiz-adv-x="240" 
d="M172 614v-614h-104v614h104zM182 728c0 -34 -29 -61 -62 -61s-62 27 -62 61s29 61 62 61s62 -27 62 -61z" />
    <glyph glyph-name="Imacron" unicode="&#x12a;" horiz-adv-x="240" 
d="M172 614v-614h-104v614h104zM8 671v79h225v-79h-225z" />
    <glyph glyph-name="Iogonek" unicode="&#x12e;" horiz-adv-x="240" 
d="M172 614v-614c-38 -60 -49 -74 -49 -97c0 -14 8 -23 21 -23c12 0 21 5 37 16v-64c-16 -12 -35 -22 -59 -22c-52 0 -75 31 -75 72c0 42 26 76 54 118h-33v614h104z" />
    <glyph glyph-name="Itilde" unicode="&#x128;" horiz-adv-x="240" 
d="M172 614v-614h-104v614h104zM203 797h60c0 -78 -28 -131 -83 -131c-48 0 -75 48 -111 48c-21 0 -31 -14 -32 -45h-60c0 78 28 131 83 131c48 0 75 -48 111 -48c20 0 31 14 32 45z" />
    <glyph glyph-name="IJ" unicode="&#x132;" horiz-adv-x="685" 
d="M215 179h108c7 -59 39 -94 98 -94c70 0 104 40 104 127v402h104v-402c0 -146 -80 -222 -206 -222c-132 0 -199 80 -208 189zM172 614v-614h-104v614h104z" />
    <glyph glyph-name="Jcircumflex" unicode="&#x134;" horiz-adv-x="485" 
d="M15 179h108c7 -59 39 -94 98 -94c70 0 104 40 104 127v402h104v-402c0 -146 -80 -222 -206 -222c-132 0 -199 80 -208 189zM424 795l94 -124h-89l-51 60l-51 -60h-89l94 124h92z" />
    <glyph glyph-name="Kcommaaccent" unicode="&#x136;" horiz-adv-x="582" 
d="M219 -217l42 60c-29 4 -51 25 -51 55c0 34 28 58 63 58c34 0 61 -24 61 -62c0 -27 -14 -50 -28 -71l-27 -40h-60zM172 614v-294l255 294h131l-248 -279l257 -335h-130l-202 263l-63 -72v-191h-104v614h104z" />
    <glyph glyph-name="Lacute" unicode="&#x139;" horiz-adv-x="505" 
d="M173 671h-98l77 117h116zM68 0v614h104v-521h295v-93h-399z" />
    <glyph glyph-name="Lcaron" unicode="&#x13d;" horiz-adv-x="505" 
d="M339 447h-78l34 167h78zM68 0v614h104v-521h295v-93h-399z" />
    <glyph glyph-name="Lcommaaccent" unicode="&#x13b;" horiz-adv-x="505" 
d="M226 -217l42 60c-29 4 -51 25 -51 55c0 34 28 58 63 58c34 0 61 -24 61 -62c0 -27 -14 -50 -28 -71l-27 -40h-60zM68 0v614h104v-521h295v-93h-399z" />
    <glyph glyph-name="Ldot" unicode="&#x13f;" horiz-adv-x="505" 
d="M68 0v614h104v-521h295v-93h-399zM429 307c0 -34 -29 -61 -62 -61s-62 27 -62 61s29 61 62 61s62 -27 62 -61z" />
    <glyph glyph-name="Nacute" unicode="&#x143;" horiz-adv-x="630" 
d="M357 671h-98l77 117h116zM562 614v-614h-80l-314 447v-447h-100v614h98l296 -426v426h100z" />
    <glyph glyph-name="Ncaron" unicode="&#x147;" horiz-adv-x="630" 
d="M269 671l-94 124h89l51 -60l51 60h89l-94 -124h-92zM562 614v-614h-80l-314 447v-447h-100v614h98l296 -426v426h100z" />
    <glyph glyph-name="Ncommaaccent" unicode="&#x145;" horiz-adv-x="630" 
d="M262 -217l42 60c-29 4 -51 25 -51 55c0 34 28 58 63 58c34 0 61 -24 61 -62c0 -27 -14 -50 -28 -71l-27 -40h-60zM562 614v-614h-80l-314 447v-447h-100v614h98l296 -426v426h100z" />
    <glyph glyph-name="Eng" unicode="&#x14a;" horiz-adv-x="630" 
d="M271 -169v102c29 -17 58 -28 95 -28c66 0 95 33 96 124l-294 418v-447h-100v614h98l296 -426v426h100v-582c0 -154 -65 -222 -190 -222c-39 0 -74 10 -101 21z" />
    <glyph glyph-name="Obreve" unicode="&#x14e;" horiz-adv-x="637" 
d="M318 667c-77 0 -127 44 -127 124h73c0 -35 22 -51 54 -51c33 0 55 16 55 51h73c0 -80 -50 -124 -128 -124zM602 307c0 -183 -118 -317 -284 -317s-283 134 -283 317c0 184 117 317 283 317s284 -133 284 -317zM497 307c0 130 -71 224 -179 224s-178 -94 -178 -224
s70 -224 178 -224s179 94 179 224z" />
    <glyph glyph-name="Ohungarumlaut" unicode="&#x150;" horiz-adv-x="637" 
d="M602 307c0 -183 -118 -317 -284 -317s-283 134 -283 317c0 184 117 317 283 317s284 -133 284 -317zM497 307c0 130 -71 224 -179 224s-178 -94 -178 -224s70 -224 178 -224s179 94 179 224zM300 671h-83l60 117h85zM433 671h-83l60 117h85z" />
    <glyph glyph-name="Omacron" unicode="&#x14c;" horiz-adv-x="637" 
d="M206 671v79h225v-79h-225zM602 307c0 -183 -118 -317 -284 -317s-283 134 -283 317c0 184 117 317 283 317s284 -133 284 -317zM497 307c0 130 -71 224 -179 224s-178 -94 -178 -224s70 -224 178 -224s179 94 179 224z" />
    <glyph glyph-name="Oslashacute" unicode="&#x1fe;" horiz-adv-x="647" 
d="M62 27l49 63c-45 55 -71 131 -71 217c0 184 117 317 283 317c62 0 117 -19 162 -52l43 56l60 -41l-51 -65c44 -55 70 -130 70 -215c0 -183 -118 -317 -284 -317c-61 0 -115 17 -160 49l-41 -53zM145 307c0 -53 9 -99 29 -136l253 327c-27 21 -62 33 -104 33
c-108 0 -178 -94 -178 -224zM502 307c0 51 -10 96 -28 133l-253 -326c27 -20 61 -31 102 -31c108 0 179 94 179 224zM365 671h-98l77 117h116z" />
    <glyph glyph-name="Racute" unicode="&#x154;" horiz-adv-x="555" 
d="M246 249h-74v-249h-104v614h237c127 0 209 -64 209 -184c0 -103 -60 -162 -157 -177l178 -253h-118zM172 524v-188h131c69 0 108 37 108 94s-39 94 -108 94h-131zM319 671h-98l77 117h116z" />
    <glyph glyph-name="Rcaron" unicode="&#x158;" horiz-adv-x="555" 
d="M246 249h-74v-249h-104v614h237c127 0 209 -64 209 -184c0 -103 -60 -162 -157 -177l178 -253h-118zM172 524v-188h131c69 0 108 37 108 94s-39 94 -108 94h-131zM231 671l-94 124h89l51 -60l51 60h89l-94 -124h-92z" />
    <glyph glyph-name="Rcommaaccent" unicode="&#x156;" horiz-adv-x="555" 
d="M246 249h-74v-249h-104v614h237c127 0 209 -64 209 -184c0 -103 -60 -162 -157 -177l178 -253h-118zM172 524v-188h131c69 0 108 37 108 94s-39 94 -108 94h-131zM224 -217l42 60c-29 4 -51 25 -51 55c0 34 28 58 63 58c34 0 61 -24 61 -62c0 -27 -14 -50 -28 -71
l-27 -40h-60z" />
    <glyph glyph-name="Sacute" unicode="&#x15a;" horiz-adv-x="519" 
d="M20 170h106c20 -63 72 -92 139 -92c72 0 119 34 119 91c0 43 -25 68 -89 83l-104 25c-85 20 -153 66 -153 165c0 104 85 182 209 182c133 0 211 -68 233 -170h-104c-16 46 -55 82 -128 82c-66 0 -111 -34 -111 -85c0 -41 26 -67 81 -80l107 -25c96 -22 159 -78 159 -170
c0 -115 -92 -186 -219 -186c-130 0 -223 66 -245 180zM295 671h-98l77 117h116z" />
    <glyph glyph-name="Scedilla" unicode="&#x15e;" horiz-adv-x="519" 
d="M20 170h106c20 -63 72 -92 139 -92c72 0 119 34 119 91c0 43 -25 68 -89 83l-104 25c-85 20 -153 66 -153 165c0 104 85 182 209 182c133 0 211 -68 233 -170h-104c-16 46 -55 82 -128 82c-66 0 -111 -34 -111 -85c0 -41 26 -67 81 -80l107 -25c96 -22 159 -78 159 -170
c0 -115 -92 -186 -219 -186c-130 0 -223 66 -245 180zM231 -190h-93l71 137h99z" />
    <glyph glyph-name="Scircumflex" unicode="&#x15c;" horiz-adv-x="519" 
d="M20 170h106c20 -63 72 -92 139 -92c72 0 119 34 119 91c0 43 -25 68 -89 83l-104 25c-85 20 -153 66 -153 165c0 104 85 182 209 182c133 0 211 -68 233 -170h-104c-16 46 -55 82 -128 82c-66 0 -111 -34 -111 -85c0 -41 26 -67 81 -80l107 -25c96 -22 159 -78 159 -170
c0 -115 -92 -186 -219 -186c-130 0 -223 66 -245 180zM305 795l94 -124h-89l-51 60l-51 -60h-89l94 124h92z" />
    <glyph glyph-name="Scommaaccent" unicode="&#x218;" horiz-adv-x="519" 
d="M200 -217l42 60c-29 4 -51 25 -51 55c0 34 28 58 63 58c34 0 61 -24 61 -62c0 -27 -14 -50 -28 -71l-27 -40h-60zM20 170h106c20 -63 72 -92 139 -92c72 0 119 34 119 91c0 43 -25 68 -89 83l-104 25c-85 20 -153 66 -153 165c0 104 85 182 209 182
c133 0 211 -68 233 -170h-104c-16 46 -55 82 -128 82c-66 0 -111 -34 -111 -85c0 -41 26 -67 81 -80l107 -25c96 -22 159 -78 159 -170c0 -115 -92 -186 -219 -186c-130 0 -223 66 -245 180z" />
    <glyph glyph-name="Tbar" unicode="&#x166;" horiz-adv-x="572" 
d="M30 522v92h512v-92h-204v-161h110v-88h-110v-273h-104v273h-110v88h110v161h-204z" />
    <glyph glyph-name="Tcaron" unicode="&#x164;" horiz-adv-x="572" 
d="M240 671l-94 124h89l51 -60l51 60h89l-94 -124h-92zM30 522v92h512v-92h-204v-522h-104v522h-204z" />
    <glyph glyph-name="Ubreve" unicode="&#x16c;" horiz-adv-x="608" 
d="M304 667c-77 0 -127 44 -127 124h73c0 -35 22 -51 54 -51c33 0 55 16 55 51h73c0 -80 -50 -124 -128 -124zM304 -10c-146 0 -246 86 -246 255v369h104v-358c0 -118 50 -173 142 -173s142 55 142 173v358h104v-370c0 -168 -99 -254 -246 -254z" />
    <glyph glyph-name="Uhungarumlaut" unicode="&#x170;" horiz-adv-x="608" 
d="M304 -10c-146 0 -246 86 -246 255v369h104v-358c0 -118 50 -173 142 -173s142 55 142 173v358h104v-370c0 -168 -99 -254 -246 -254zM286 671h-83l60 117h85zM419 671h-83l60 117h85z" />
    <glyph glyph-name="Umacron" unicode="&#x16a;" horiz-adv-x="608" 
d="M192 671v79h225v-79h-225zM304 -10c-146 0 -246 86 -246 255v369h104v-358c0 -118 50 -173 142 -173s142 55 142 173v358h104v-370c0 -168 -99 -254 -246 -254z" />
    <glyph glyph-name="Uogonek" unicode="&#x172;" horiz-adv-x="608" 
d="M304 -10c-146 0 -246 86 -246 255v369h104v-358c0 -118 50 -173 142 -173s142 55 142 173v358h104v-370c0 -110 -36 -172 -109 -223s-93 -89 -93 -118c0 -14 8 -23 21 -23c12 0 21 5 37 16v-64c-16 -12 -35 -22 -59 -22c-52 0 -75 31 -75 72c0 38 20 75 53 108h-21z" />
    <glyph glyph-name="Uring" unicode="&#x16e;" horiz-adv-x="608" 
d="M304 -10c-146 0 -246 86 -246 255v369h104v-358c0 -118 50 -173 142 -173s142 55 142 173v358h104v-370c0 -168 -99 -254 -246 -254zM397 740c0 -52 -41 -91 -93 -91s-93 39 -93 91s41 91 93 91s93 -39 93 -91zM346 740c0 24 -19 42 -42 42s-42 -18 -42 -42
s19 -42 42 -42s42 18 42 42z" />
    <glyph glyph-name="Utilde" unicode="&#x168;" horiz-adv-x="608" 
d="M387 797h60c0 -78 -28 -131 -83 -131c-48 0 -75 48 -111 48c-21 0 -31 -14 -32 -45h-60c0 78 28 131 83 131c48 0 75 -48 111 -48c20 0 31 14 32 45zM304 -10c-146 0 -246 86 -246 255v369h104v-358c0 -118 50 -173 142 -173s142 55 142 173v358h104v-370
c0 -168 -99 -254 -246 -254z" />
    <glyph glyph-name="Wacute" unicode="&#x1e82;" horiz-adv-x="775" 
d="M436 671h-98l77 117h116zM347 614h84l116 -452l111 452h100l-158 -614h-96l-116 439l-118 -439h-95l-158 614h102l111 -452z" />
    <glyph glyph-name="Wcircumflex" unicode="&#x174;" horiz-adv-x="775" 
d="M347 614h84l116 -452l111 452h100l-158 -614h-96l-116 439l-118 -439h-95l-158 614h102l111 -452zM433 795l94 -124h-89l-51 60l-51 -60h-89l94 124h92z" />
    <glyph glyph-name="Wgrave" unicode="&#x1e80;" horiz-adv-x="775" 
d="M436 671h-98l-95 117h116zM347 614h84l116 -452l111 452h100l-158 -614h-96l-116 439l-118 -439h-95l-158 614h102l111 -452z" />
    <glyph glyph-name="Wdieresis" unicode="&#x1e84;" horiz-adv-x="775" 
d="M252 728c0 34 26 59 59 59c32 0 58 -25 58 -59c0 -32 -26 -58 -58 -58c-33 0 -59 26 -59 58zM406 728c0 34 26 59 58 59s59 -25 59 -59c0 -32 -27 -58 -59 -58s-58 26 -58 58zM347 614h84l116 -452l111 452h100l-158 -614h-96l-116 439l-118 -439h-95l-158 614h102
l111 -452z" />
    <glyph glyph-name="Ycircumflex" unicode="&#x176;" horiz-adv-x="578" 
d="M291 339l162 275h110l-223 -369v-245h-103v245l-222 369h113zM335 795l94 -124h-89l-51 60l-51 -60h-89l94 124h92z" />
    <glyph glyph-name="Ygrave" unicode="&#x1ef2;" horiz-adv-x="578" 
d="M291 339l162 275h110l-223 -369v-245h-103v245l-222 369h113zM342 671h-98l-95 117h116z" />
    <glyph glyph-name="Zacute" unicode="&#x179;" horiz-adv-x="549" 
d="M504 93v-93h-459v73l324 449h-319v92h449v-72l-323 -449h328zM337 671h-98l77 117h116z" />
    <glyph glyph-name="Zdotaccent" unicode="&#x17b;" horiz-adv-x="549" 
d="M357 728c0 -34 -29 -61 -62 -61s-62 27 -62 61s29 61 62 61s62 -27 62 -61zM504 93v-93h-459v73l324 449h-319v92h449v-72l-323 -449h328z" />
    <glyph glyph-name="abreve" unicode="&#x103;" horiz-adv-x="460" 
d="M404 0h-95v25c-15 -15 -60 -33 -110 -33c-91 0 -166 54 -166 145c0 84 75 143 173 143c40 0 85 -14 103 -27v36c0 45 -28 80 -85 80c-40 0 -65 -17 -76 -48h-96c13 76 83 133 174 133c112 0 178 -62 178 -163v-291zM309 118v37c-11 28 -51 45 -91 45
c-45 0 -92 -19 -92 -63c0 -45 47 -64 92 -64c40 0 80 17 91 45zM232 495c-75 0 -125 48 -125 135h73c0 -38 16 -65 52 -65s52 27 52 65h73c0 -87 -50 -135 -125 -135z" />
    <glyph glyph-name="amacron" unicode="&#x101;" horiz-adv-x="460" 
d="M404 0h-95v25c-15 -15 -60 -33 -110 -33c-91 0 -166 54 -166 145c0 84 75 143 173 143c40 0 85 -14 103 -27v36c0 45 -28 80 -85 80c-40 0 -65 -17 -76 -48h-96c13 76 83 133 174 133c112 0 178 -62 178 -163v-291zM309 118v37c-11 28 -51 45 -91 45
c-45 0 -92 -19 -92 -63c0 -45 47 -64 92 -64c40 0 80 17 91 45zM123 524v79h225v-79h-225z" />
    <glyph glyph-name="aogonek" unicode="&#x105;" horiz-adv-x="460" 
d="M308 118v37c-11 28 -50 45 -90 45c-45 0 -92 -19 -92 -63c0 -45 47 -64 92 -64c40 0 79 17 90 45zM333 0h-25v25c-15 -15 -59 -33 -109 -33c-91 0 -166 54 -166 145c0 84 75 143 173 143c40 0 84 -14 102 -27v36c0 45 -27 80 -84 80c-40 0 -67 -17 -78 -48h-94
c13 76 83 133 174 133c112 0 178 -62 178 -163v-291c-38 -60 -49 -74 -49 -97c0 -14 8 -23 21 -23c12 0 21 5 37 16v-64c-16 -12 -35 -22 -59 -22c-52 0 -75 31 -75 72c0 42 26 76 54 118z" />
    <glyph glyph-name="aringacute" unicode="&#x1fb;" horiz-adv-x="460" 
d="M327 550c0 -43 -41 -77 -93 -77s-93 34 -93 77s41 77 93 77s93 -34 93 -77zM276 550c0 20 -19 32 -42 32s-42 -12 -42 -32s19 -32 42 -32s42 12 42 32zM290 646h-98l53 88h116zM404 0h-95v25c-15 -15 -60 -33 -110 -33c-91 0 -166 54 -166 145c0 84 75 143 173 143
c40 0 85 -14 103 -27v36c0 45 -28 80 -85 80c-40 0 -65 -17 -76 -48h-96c13 76 83 133 174 133c112 0 178 -62 178 -163v-291zM309 118v37c-11 28 -51 45 -91 45c-45 0 -92 -19 -92 -63c0 -45 47 -64 92 -64c40 0 80 17 91 45z" />
    <glyph glyph-name="aeacute" unicode="&#x1fd;" horiz-adv-x="731" 
d="M429 513h-89l77 137h103zM208 73c48 0 84 23 100 62v62h-92c-45 0 -90 -16 -90 -60s40 -64 82 -64zM605 138h92c-15 -88 -80 -148 -187 -148c-65 0 -119 24 -156 67c-38 -40 -90 -65 -155 -65c-91 0 -166 54 -166 139c0 90 77 142 175 142h100v16c0 45 -27 80 -84 80
c-40 0 -67 -17 -78 -48h-94c13 76 83 133 174 133c69 0 117 -24 144 -66c34 39 82 66 138 66c125 0 193 -89 193 -219v-36h-303c3 -78 48 -125 112 -125c48 0 84 21 95 64zM509 370c-55 0 -96 -34 -108 -98h201c-1 54 -32 98 -93 98z" />
    <glyph glyph-name="cacute" unicode="&#x107;" horiz-adv-x="451" 
d="M282 513h-89l77 137h103zM31 222c0 138 87 232 207 232c106 0 173 -60 186 -149h-100c-8 40 -41 62 -85 62c-67 0 -108 -61 -108 -145s41 -145 108 -145c44 0 77 22 85 62h100c-13 -89 -80 -149 -186 -149c-120 0 -207 94 -207 232z" />
    <glyph glyph-name="ccaron" unicode="&#x10d;" horiz-adv-x="451" 
d="M383 646l-94 -140h-92l-94 140h84l56 -79l56 79h84zM31 222c0 138 87 232 207 232c106 0 173 -60 186 -149h-100c-8 40 -41 62 -85 62c-67 0 -108 -61 -108 -145s41 -145 108 -145c44 0 77 22 85 62h100c-13 -89 -80 -149 -186 -149c-120 0 -207 94 -207 232z" />
    <glyph glyph-name="ccircumflex" unicode="&#x109;" horiz-adv-x="451" 
d="M289 646l94 -140h-84l-56 79l-56 -79h-84l94 140h92zM31 222c0 138 87 232 207 232c106 0 173 -60 186 -149h-100c-8 40 -41 62 -85 62c-67 0 -108 -61 -108 -145s41 -145 108 -145c44 0 77 22 85 62h100c-13 -89 -80 -149 -186 -149c-120 0 -207 94 -207 232z" />
    <glyph glyph-name="cdotaccent" unicode="&#x10b;" horiz-adv-x="451" 
d="M31 222c0 138 87 232 207 232c106 0 173 -60 186 -149h-100c-8 40 -41 62 -85 62c-67 0 -108 -61 -108 -145s41 -145 108 -145c44 0 77 22 85 62h100c-13 -89 -80 -149 -186 -149c-120 0 -207 94 -207 232zM305 578c0 -34 -29 -61 -62 -61s-62 27 -62 61s29 61 62 61
s62 -27 62 -61z" />
    <glyph glyph-name="dcaron" unicode="&#x10f;" horiz-adv-x="512" 
d="M578 483h-78l34 167h78zM350 0v38c-20 -25 -64 -48 -113 -48c-130 0 -206 104 -206 232c0 127 76 232 206 232c49 0 93 -23 113 -48v244h100v-650h-100zM350 138v168c-17 35 -55 59 -96 59c-77 0 -123 -61 -123 -143s46 -143 123 -143c41 0 79 24 96 59z" />
    <glyph glyph-name="dcroat" unicode="&#x111;" horiz-adv-x="512" 
d="M249 502v70h101v78h100v-78h60v-70h-60v-502h-100v38c-20 -25 -64 -48 -113 -48c-130 0 -206 104 -206 232c0 127 76 232 206 232c49 0 93 -23 113 -48v96h-101zM350 138v168c-17 35 -55 59 -96 59c-77 0 -123 -61 -123 -143s46 -143 123 -143c41 0 79 24 96 59z" />
    <glyph glyph-name="ebreve" unicode="&#x115;" horiz-adv-x="462" 
d="M336 138h92c-15 -88 -80 -148 -187 -148c-124 0 -210 94 -210 231c0 133 87 233 208 233c125 0 193 -89 193 -219v-36h-303c3 -78 48 -125 112 -125c48 0 84 21 95 64zM240 370c-55 0 -96 -34 -108 -98h201c-1 54 -32 98 -93 98zM244 495c-75 0 -125 48 -125 135h73
c0 -38 16 -65 52 -65s52 27 52 65h73c0 -87 -50 -135 -125 -135z" />
    <glyph glyph-name="ecaron" unicode="&#x11b;" horiz-adv-x="462" 
d="M384 646l-94 -140h-92l-94 140h84l56 -79l56 79h84zM336 138h92c-15 -88 -80 -148 -187 -148c-124 0 -210 94 -210 231c0 133 87 233 208 233c125 0 193 -89 193 -219v-36h-303c3 -78 48 -125 112 -125c48 0 84 21 95 64zM240 370c-55 0 -96 -34 -108 -98h201
c-1 54 -32 98 -93 98z" />
    <glyph glyph-name="edotaccent" unicode="&#x117;" horiz-adv-x="462" 
d="M336 138h92c-15 -88 -80 -148 -187 -148c-124 0 -210 94 -210 231c0 133 87 233 208 233c125 0 193 -89 193 -219v-36h-303c3 -78 48 -125 112 -125c48 0 84 21 95 64zM240 370c-55 0 -96 -34 -108 -98h201c-1 54 -32 98 -93 98zM306 578c0 -34 -29 -61 -62 -61
s-62 27 -62 61s29 61 62 61s62 -27 62 -61z" />
    <glyph glyph-name="emacron" unicode="&#x113;" horiz-adv-x="462" 
d="M132 524v79h225v-79h-225zM336 138h92c-15 -88 -80 -148 -187 -148c-124 0 -210 94 -210 231c0 133 87 233 208 233c125 0 193 -89 193 -219v-36h-303c3 -78 48 -125 112 -125c48 0 84 21 95 64zM240 370c-55 0 -96 -34 -108 -98h201c-1 54 -32 98 -93 98z" />
    <glyph glyph-name="eogonek" unicode="&#x119;" horiz-adv-x="462" 
d="M240 370c-55 0 -96 -34 -108 -98h201c-1 54 -32 98 -93 98zM269 -8c-9 -1 -19 -2 -28 -2c-124 0 -210 94 -210 231c0 133 87 233 208 233c125 0 193 -89 193 -219v-36h-303c3 -78 48 -125 112 -125c47 0 84 21 95 64h92c-7 -43 -28 -79 -61 -111
c-47 -46 -72 -90 -72 -122c0 -14 8 -25 23 -25c12 0 21 5 37 16v-64c-16 -12 -35 -22 -59 -22c-52 0 -77 33 -77 74c0 39 19 70 50 108z" />
    <glyph glyph-name="gbreve" unicode="&#x11f;" horiz-adv-x="512" 
d="M350 30v20c-20 -24 -63 -46 -113 -46c-131 0 -206 108 -206 225s75 225 206 225c50 0 93 -22 113 -46v36h100v-407c0 -150 -91 -217 -209 -217c-113 0 -186 59 -197 156h97c10 -49 45 -74 100 -74c74 0 109 45 109 128zM350 145v168c-17 30 -54 53 -96 53
c-77 0 -121 -58 -121 -137s44 -137 121 -137c42 0 79 23 96 53zM268 495c-75 0 -125 48 -125 135h73c0 -38 16 -65 52 -65s52 27 52 65h73c0 -87 -50 -135 -125 -135z" />
    <glyph glyph-name="gcircumflex" unicode="&#x11d;" horiz-adv-x="512" 
d="M314 646l94 -140h-84l-56 79l-56 -79h-84l94 140h92zM350 30v20c-20 -24 -63 -46 -113 -46c-131 0 -206 108 -206 225s75 225 206 225c50 0 93 -22 113 -46v36h100v-407c0 -150 -91 -217 -209 -217c-113 0 -186 59 -197 156h97c10 -49 45 -74 100 -74
c74 0 109 45 109 128zM350 145v168c-17 30 -54 53 -96 53c-77 0 -121 -58 -121 -137s44 -137 121 -137c42 0 79 23 96 53z" />
    <glyph glyph-name="gcommaaccent" unicode="&#x123;" horiz-adv-x="512" 
d="M323 696l-43 -62c30 -4 52 -26 52 -57c0 -35 -29 -60 -65 -60c-35 0 -63 25 -63 64c0 28 14 52 29 74l28 41h62zM350 30v20c-20 -24 -63 -46 -113 -46c-131 0 -206 108 -206 225s75 225 206 225c50 0 93 -22 113 -46v36h100v-407c0 -150 -91 -217 -209 -217
c-113 0 -186 59 -197 156h97c10 -49 45 -74 100 -74c74 0 109 45 109 128zM350 145v168c-17 30 -54 53 -96 53c-77 0 -121 -58 -121 -137s44 -137 121 -137c42 0 79 23 96 53z" />
    <glyph glyph-name="gdotaccent" unicode="&#x121;" horiz-adv-x="512" 
d="M330 578c0 -34 -29 -61 -62 -61s-62 27 -62 61s29 61 62 61s62 -27 62 -61zM350 30v20c-20 -24 -63 -46 -113 -46c-131 0 -206 108 -206 225s75 225 206 225c50 0 93 -22 113 -46v36h100v-407c0 -150 -91 -217 -209 -217c-113 0 -186 59 -197 156h97
c10 -49 45 -74 100 -74c74 0 109 45 109 128zM350 145v168c-17 30 -54 53 -96 53c-77 0 -121 -58 -121 -137s44 -137 121 -137c42 0 79 23 96 53z" />
    <glyph glyph-name="hbar" unicode="&#x127;" horiz-adv-x="495" 
d="M2 502v70h60v78h100v-78h101v-70h-101v-100c24 28 68 52 120 52c101 0 157 -67 157 -165v-289h-100v272c0 55 -27 91 -84 91c-43 0 -82 -27 -93 -71v-292h-100v502h-60z" />
    <glyph glyph-name="hcircumflex" unicode="&#x125;" horiz-adv-x="495" 
d="M62 0v650h100v-248c24 28 68 52 120 52c101 0 157 -67 157 -165v-289h-100v272c0 55 -27 91 -84 91c-43 0 -82 -27 -93 -71v-292h-100zM296 815l94 -124h-89l-51 60l-51 -60h-89l94 124h92z" />
    <glyph glyph-name="ibreve" unicode="&#x12d;" horiz-adv-x="224" 
d="M112 495c-67 0 -112 48 -112 135h71c0 -38 9 -65 41 -65s41 27 41 65h71c0 -87 -45 -135 -112 -135zM162 444v-444h-100v444h100z" />
    <glyph glyph-name="imacron" unicode="&#x12b;" horiz-adv-x="224" 
d="M162 444v-444h-100v444h100zM13 524v79h198v-79h-198z" />
    <glyph glyph-name="iogonek" unicode="&#x12f;" horiz-adv-x="224" 
d="M162 444v-444c-38 -60 -49 -74 -49 -97c0 -14 8 -23 21 -23c12 0 21 5 37 16v-64c-16 -12 -35 -22 -59 -22c-52 0 -75 31 -75 72c0 42 26 76 54 118h-29v444h100zM174 578c0 -34 -29 -61 -62 -61s-62 27 -62 61s29 61 62 61s62 -27 62 -61z" />
    <glyph glyph-name="itilde" unicode="&#x129;" horiz-adv-x="224" 
d="M174 641h58c0 -78 -26 -131 -73 -131c-38 0 -61 49 -84 49c-18 0 -26 -15 -27 -46h-58c0 78 26 131 73 131c38 0 62 -49 84 -49c17 0 26 15 27 46zM162 444v-444h-100v444h100z" />
    <glyph glyph-name="ij" unicode="&#x133;" horiz-adv-x="446" 
d="M162 444v-444h-100v444h100zM174 578c0 -34 -29 -61 -62 -61s-62 27 -62 61s29 61 62 61s62 -27 62 -61zM386 444v-484c0 -88 -49 -140 -145 -140c-10 0 -30 1 -40 5v84c7 -2 20 -4 30 -4c38 0 55 20 55 62v477h100zM398 578c0 -34 -29 -61 -62 -61s-62 27 -62 61
s29 61 62 61s62 -27 62 -61z" />
    <glyph glyph-name="jcircumflex" unicode="&#x135;" horiz-adv-x="222" 
d="M158 646l76 -140h-82l-40 76l-40 -76h-82l76 140h92zM162 444v-484c0 -88 -49 -140 -145 -140c-10 0 -30 1 -40 5v84c7 -2 20 -4 30 -4c38 0 55 20 55 62v477h100z" />
    <glyph glyph-name="kcommaaccent" unicode="&#x137;" horiz-adv-x="481" 
d="M185 -217l42 60c-29 4 -51 25 -51 55c0 34 28 58 63 58c34 0 61 -24 61 -62c0 -27 -14 -50 -28 -71l-27 -40h-60zM350 0l-147 189l-41 -42v-147h-100v650h100v-388l174 182h128l-189 -192l196 -252h-121z" />
    <glyph glyph-name="kgreenlandic" unicode="&#x138;" horiz-adv-x="481" 
d="M350 0l-147 189l-41 -42v-147h-100v444h100v-182l174 182h128l-189 -192l196 -252h-121z" />
    <glyph glyph-name="lacute" unicode="&#x13a;" horiz-adv-x="224" 
d="M160 701h-98l77 117h116zM162 650v-650h-100v650h100z" />
    <glyph glyph-name="lcaron" unicode="&#x13e;" horiz-adv-x="224" 
d="M290 483h-78l34 167h78zM162 650v-650h-100v650h100z" />
    <glyph glyph-name="lcommaaccent" unicode="&#x13c;" horiz-adv-x="224" 
d="M59 -217l42 60c-29 4 -51 25 -51 55c0 34 28 58 63 58c34 0 61 -24 61 -62c0 -27 -14 -50 -28 -71l-27 -40h-60zM162 650v-650h-100v650h100z" />
    <glyph glyph-name="ldot" unicode="&#x140;" horiz-adv-x="364" 
d="M162 650v-650h-100v650h100zM354 325c0 -34 -29 -61 -62 -61s-62 27 -62 61s29 61 62 61s62 -27 62 -61z" />
    <glyph glyph-name="nacute" unicode="&#x144;" horiz-adv-x="495" 
d="M295 513h-89l77 137h103zM62 0v444h100v-42c24 28 68 52 120 52c101 0 157 -67 157 -165v-289h-100v272c0 55 -27 91 -84 91c-43 0 -82 -27 -93 -71v-292h-100z" />
    <glyph glyph-name="ncaron" unicode="&#x148;" horiz-adv-x="495" 
d="M396 646l-94 -140h-92l-94 140h84l56 -79l56 79h84zM62 0v444h100v-42c24 28 68 52 120 52c101 0 157 -67 157 -165v-289h-100v272c0 55 -27 91 -84 91c-43 0 -82 -27 -93 -71v-292h-100z" />
    <glyph glyph-name="ncommaaccent" unicode="&#x146;" horiz-adv-x="495" 
d="M203 -217l42 60c-29 4 -51 25 -51 55c0 34 28 58 63 58c34 0 61 -24 61 -62c0 -27 -14 -50 -28 -71l-27 -40h-60zM62 0v444h100v-42c24 28 68 52 120 52c101 0 157 -67 157 -165v-289h-100v272c0 55 -27 91 -84 91c-43 0 -82 -27 -93 -71v-292h-100z" />
    <glyph glyph-name="eng" unicode="&#x14b;" horiz-adv-x="495" 
d="M339 -33v305c0 55 -27 91 -84 91c-43 0 -82 -27 -93 -71v-292h-100v444h100v-42c24 28 68 52 120 52c101 0 157 -67 157 -165v-329c0 -88 -49 -140 -145 -140c-10 0 -30 1 -40 5v84c7 -2 20 -4 30 -4c38 0 55 20 55 62z" />
    <glyph glyph-name="obreve" unicode="&#x14f;" horiz-adv-x="484" 
d="M453 222c0 -136 -86 -232 -211 -232s-211 96 -211 232s86 232 211 232s211 -96 211 -232zM353 222c0 84 -39 146 -111 146s-111 -62 -111 -146s39 -146 111 -146s111 62 111 146zM242 495c-75 0 -125 48 -125 135h73c0 -38 16 -65 52 -65s52 27 52 65h73
c0 -87 -50 -135 -125 -135z" />
    <glyph glyph-name="ohungarumlaut" unicode="&#x151;" horiz-adv-x="484" 
d="M213 513h-80l60 137h82zM341 513h-80l60 137h82zM453 222c0 -136 -86 -232 -211 -232s-211 96 -211 232s86 232 211 232s211 -96 211 -232zM353 222c0 84 -39 146 -111 146s-111 -62 -111 -146s39 -146 111 -146s111 62 111 146z" />
    <glyph glyph-name="omacron" unicode="&#x14d;" horiz-adv-x="484" 
d="M130 524v79h225v-79h-225zM453 222c0 -136 -86 -232 -211 -232s-211 96 -211 232s86 232 211 232s211 -96 211 -232zM353 222c0 84 -39 146 -111 146s-111 -62 -111 -146s39 -146 111 -146s111 62 111 146z" />
    <glyph glyph-name="oslashacute" unicode="&#x1ff;" horiz-adv-x="494" 
d="M37 2l49 63c-32 40 -50 94 -50 157c0 136 86 232 211 232c43 0 82 -12 114 -33l41 54l51 -36l-46 -60c32 -40 51 -94 51 -157c0 -136 -86 -232 -211 -232c-44 0 -83 12 -115 33l-44 -57zM360 222c0 29 -5 56 -14 78l-160 -206c17 -12 37 -18 61 -18c72 0 113 62 113 146z
M134 222c0 -29 4 -55 13 -77l159 206c-16 11 -36 17 -59 17c-72 0 -113 -62 -113 -146zM285 513h-89l77 137h103z" />
    <glyph glyph-name="racute" unicode="&#x155;" horiz-adv-x="340" 
d="M225 513h-89l77 137h103zM310 446v-103c-14 10 -38 15 -59 15c-41 0 -79 -23 -89 -71v-287h-100v444h100v-46c17 33 56 56 99 56c22 0 42 -4 49 -8z" />
    <glyph glyph-name="rcaron" unicode="&#x159;" horiz-adv-x="340" 
d="M326 646l-94 -140h-92l-94 140h84l56 -79l56 79h84zM310 446v-103c-14 10 -38 15 -59 15c-41 0 -79 -23 -89 -71v-287h-100v444h100v-46c17 33 56 56 99 56c22 0 42 -4 49 -8z" />
    <glyph glyph-name="rcommaaccent" unicode="&#x157;" horiz-adv-x="340" 
d="M57 -217l42 60c-29 4 -51 25 -51 55c0 34 28 58 63 58c34 0 61 -24 61 -62c0 -27 -14 -50 -28 -71l-27 -40h-60zM310 446v-103c-14 10 -38 15 -59 15c-41 0 -79 -23 -89 -71v-287h-100v444h100v-46c17 33 56 56 99 56c22 0 42 -4 49 -8z" />
    <glyph glyph-name="sacute" unicode="&#x15b;" horiz-adv-x="429" 
d="M255 513h-89l77 137h103zM31 128h102c11 -37 44 -56 88 -56c46 0 76 18 76 53c0 24 -15 37 -52 46l-92 22c-63 15 -110 49 -110 122c0 80 71 139 168 139c104 0 163 -50 178 -131h-98c-9 29 -35 49 -81 49c-35 0 -71 -16 -71 -51c0 -20 14 -33 46 -41l94 -22
c76 -18 114 -61 114 -126c0 -88 -73 -142 -173 -142c-104 0 -176 52 -189 138z" />
    <glyph glyph-name="scedilla" unicode="&#x15f;" horiz-adv-x="429" 
d="M31 128h102c11 -37 44 -56 88 -56c46 0 76 18 76 53c0 24 -15 37 -52 46l-92 22c-63 15 -110 49 -110 122c0 80 71 139 168 139c104 0 163 -50 178 -131h-98c-9 29 -35 49 -81 49c-35 0 -71 -16 -71 -51c0 -20 14 -33 46 -41l94 -22c76 -18 114 -61 114 -126
c0 -88 -73 -142 -173 -142c-104 0 -176 52 -189 138zM194 -190h-93l71 137h99z" />
    <glyph glyph-name="scircumflex" unicode="&#x15d;" horiz-adv-x="429" 
d="M262 646l94 -140h-84l-56 79l-56 -79h-84l94 140h92zM31 128h102c11 -37 44 -56 88 -56c46 0 76 18 76 53c0 24 -15 37 -52 46l-92 22c-63 15 -110 49 -110 122c0 80 71 139 168 139c104 0 163 -50 178 -131h-98c-9 29 -35 49 -81 49c-35 0 -71 -16 -71 -51
c0 -20 14 -33 46 -41l94 -22c76 -18 114 -61 114 -126c0 -88 -73 -142 -173 -142c-104 0 -176 52 -189 138z" />
    <glyph glyph-name="scommaaccent" unicode="&#x219;" horiz-adv-x="429" 
d="M163 -217l42 60c-29 4 -51 25 -51 55c0 34 28 58 63 58c34 0 61 -24 61 -62c0 -27 -14 -50 -28 -71l-27 -40h-60zM31 128h102c11 -37 44 -56 88 -56c46 0 76 18 76 53c0 24 -15 37 -52 46l-92 22c-63 15 -110 49 -110 122c0 80 71 139 168 139c104 0 163 -50 178 -131
h-98c-9 29 -35 49 -81 49c-35 0 -71 -16 -71 -51c0 -20 14 -33 46 -41l94 -22c76 -18 114 -61 114 -126c0 -88 -73 -142 -173 -142c-104 0 -176 52 -189 138z" />
    <glyph glyph-name="tbar" unicode="&#x167;" horiz-adv-x="341" 
d="M30 199v79h61v83h-70v83h70v119h100v-119h100v-83h-100v-83h87v-79h-87v-68c0 -36 20 -52 53 -52c20 0 43 8 57 18v-91c-17 -10 -44 -16 -75 -16c-79 0 -135 42 -135 130v79h-61z" />
    <glyph glyph-name="tcaron" unicode="&#x165;" horiz-adv-x="335" 
d="M85 120v241h-70v83h70v119h100v-119h100v-83h-100v-230c0 -36 20 -52 53 -52c20 0 43 8 57 18v-91c-17 -10 -44 -16 -75 -16c-79 0 -135 42 -135 130zM312 493h-78l34 167h78z" />
    <glyph glyph-name="ubreve" unicode="&#x16d;" horiz-adv-x="493" 
d="M431 444v-444h-100v42c-24 -28 -67 -52 -119 -52c-101 0 -156 67 -156 165v289h100v-272c0 -55 26 -91 83 -91c43 0 81 27 92 71v292h100zM247 495c-75 0 -125 48 -125 135h73c0 -38 16 -65 52 -65s52 27 52 65h73c0 -87 -50 -135 -125 -135z" />
    <glyph glyph-name="uhungarumlaut" unicode="&#x171;" horiz-adv-x="493" 
d="M431 444v-444h-100v42c-24 -28 -67 -52 -119 -52c-101 0 -156 67 -156 165v289h100v-272c0 -55 26 -91 83 -91c43 0 81 27 92 71v292h100zM218 513h-80l60 137h82zM346 513h-80l60 137h82z" />
    <glyph glyph-name="umacron" unicode="&#x16b;" horiz-adv-x="493" 
d="M431 444v-444h-100v42c-24 -28 -67 -52 -119 -52c-101 0 -156 67 -156 165v289h100v-272c0 -55 26 -91 83 -91c43 0 81 27 92 71v292h100zM135 524v79h225v-79h-225z" />
    <glyph glyph-name="uogonek" unicode="&#x173;" horiz-adv-x="493" 
d="M431 444v-444c-38 -60 -49 -74 -49 -97c0 -14 8 -23 21 -23c12 0 21 5 37 16v-64c-16 -12 -35 -22 -59 -22c-52 0 -75 31 -75 72c0 42 26 76 54 118h-29v42c-24 -28 -67 -52 -119 -52c-101 0 -156 67 -156 165v289h100v-272c0 -55 26 -91 83 -91c43 0 81 27 92 71v292
h100z" />
    <glyph glyph-name="uring" unicode="&#x16f;" horiz-adv-x="493" 
d="M340 580c0 -52 -41 -91 -93 -91s-93 39 -93 91s41 91 93 91s93 -39 93 -91zM289 580c0 24 -19 42 -42 42s-42 -18 -42 -42s19 -42 42 -42s42 18 42 42zM431 444v-444h-100v42c-24 -28 -67 -52 -119 -52c-101 0 -156 67 -156 165v289h100v-272c0 -55 26 -91 83 -91
c43 0 81 27 92 71v292h100z" />
    <glyph glyph-name="utilde" unicode="&#x169;" horiz-adv-x="493" 
d="M431 444v-444h-100v42c-24 -28 -67 -52 -119 -52c-101 0 -156 67 -156 165v289h100v-272c0 -55 26 -91 83 -91c43 0 81 27 92 71v292h100zM325 641h60c0 -78 -28 -131 -83 -131c-43 0 -72 52 -101 52c-21 0 -31 -18 -32 -49h-60c0 78 28 131 83 131c44 0 73 -52 101 -52
c20 0 31 18 32 49z" />
    <glyph glyph-name="wacute" unicode="&#x1e83;" horiz-adv-x="652" 
d="M365 513h-89l77 137h103zM373 444l78 -315l86 315h97l-129 -444h-100l-79 309l-79 -309h-100l-129 444h100l86 -315l78 315h91z" />
    <glyph glyph-name="wcircumflex" unicode="&#x175;" horiz-adv-x="652" 
d="M372 646l94 -140h-84l-56 79l-56 -79h-84l94 140h92zM373 444l78 -315l86 315h97l-129 -444h-100l-79 309l-79 -309h-100l-129 444h100l86 -315l78 315h91z" />
    <glyph glyph-name="wgrave" unicode="&#x1e81;" horiz-adv-x="652" 
d="M373 444l78 -315l86 315h97l-129 -444h-100l-79 309l-79 -309h-100l-129 444h100l86 -315l78 315h91zM376 513h-89l-91 137h103z" />
    <glyph glyph-name="wdieresis" unicode="&#x1e85;" horiz-adv-x="652" 
d="M191 572c0 34 26 59 59 59c32 0 58 -25 58 -59c0 -32 -26 -58 -58 -58c-33 0 -59 26 -59 58zM345 572c0 34 26 59 58 59s59 -25 59 -59c0 -32 -27 -58 -59 -58s-58 26 -58 58zM373 444l78 -315l86 315h97l-129 -444h-100l-79 309l-79 -309h-100l-129 444h100l86 -315
l78 315h91z" />
    <glyph glyph-name="ycircumflex" unicode="&#x177;" horiz-adv-x="476" 
d="M224 -170h-97l63 158l-172 456h107l116 -327l114 327h103zM284 646l94 -140h-84l-56 79l-56 -79h-84l94 140h92z" />
    <glyph glyph-name="ygrave" unicode="&#x1ef3;" horiz-adv-x="476" 
d="M224 -170h-97l63 158l-172 456h107l116 -327l114 327h103zM288 513h-89l-91 137h103z" />
    <glyph glyph-name="zacute" unicode="&#x17a;" horiz-adv-x="450" 
d="M273 513h-89l77 137h103zM403 83v-83h-360v63l228 298h-218v83h346v-63l-227 -298h231z" />
    <glyph glyph-name="zdotaccent" unicode="&#x17c;" horiz-adv-x="450" 
d="M403 83v-83h-360v63l228 298h-218v83h346v-63l-227 -298h231zM296 578c0 -34 -29 -61 -62 -61s-62 27 -62 61s29 61 62 61s62 -27 62 -61z" />
    <glyph glyph-name="caron.Slovak" 
d="M264 483h-78l34 167h78z" />
    <glyph glyph-name="cedilla.alt" 
d="M258 -190h-93l71 137h99z" />
    <glyph glyph-name="grave.cap" 
d="M346 671h-98l-95 117h116z" />
    <glyph glyph-name="acute.cap" 
d="M251 671h-98l77 117h116z" />
    <glyph glyph-name="circumflex.cap" 
d="M296 795l94 -124h-89l-51 60l-51 -60h-89l94 124h92z" />
    <glyph glyph-name="caron.cap" 
d="M204 671l-94 124h89l51 -60l51 60h89l-94 -124h-92z" />
    <glyph glyph-name="tilde.cap" 
d="M333 797h60c0 -78 -28 -131 -83 -131c-48 0 -75 48 -111 48c-21 0 -31 -14 -32 -45h-60c0 78 28 131 83 131c48 0 75 -48 111 -48c20 0 31 14 32 45z" />
    <glyph glyph-name="macron.cap" 
d="M137 671v79h225v-79h-225z" />
    <glyph glyph-name="breve.cap" 
d="M249 667c-77 0 -127 44 -127 124h73c0 -35 22 -51 54 -51c33 0 55 16 55 51h73c0 -80 -50 -124 -128 -124z" />
    <glyph glyph-name="dotaccent.cap" 
d="M312 728c0 -34 -29 -61 -62 -61s-62 27 -62 61s29 61 62 61s62 -27 62 -61z" />
    <glyph glyph-name="dieresis.cap" 
d="M114 728c0 34 26 59 59 59c32 0 58 -25 58 -59c0 -32 -26 -58 -58 -58c-33 0 -59 26 -59 58zM268 728c0 34 26 59 58 59s59 -25 59 -59c0 -32 -27 -58 -59 -58s-58 26 -58 58z" />
    <glyph glyph-name="ring.cap" 
d="M343 740c0 -52 -41 -91 -93 -91s-93 39 -93 91s41 91 93 91s93 -39 93 -91zM292 740c0 24 -19 42 -42 42s-42 -18 -42 -42s19 -42 42 -42s42 18 42 42z" />
    <glyph glyph-name="hungarumlaut.cap" 
d="M194 671h-83l60 117h85zM327 671h-83l60 117h85z" />
    <glyph glyph-name="exclamdown.cap" horiz-adv-x="200" 
d="M32 552c0 39 30 69 68 69s68 -30 68 -69s-30 -69 -68 -69s-68 30 -68 69zM40 0l25 421h70l25 -421h-120z" />
    <glyph glyph-name="questiondown.cap" horiz-adv-x="441" 
d="M285 551c0 -39 -30 -69 -68 -69s-68 30 -68 69s30 69 68 69s68 -30 68 -69zM20 167c0 75 55 126 102 174c35 36 42 58 42 79h98c-3 -55 -17 -81 -61 -129c-34 -38 -79 -70 -79 -123c0 -51 35 -87 93 -87c62 0 94 44 98 102h108c-12 -114 -92 -194 -206 -194
c-123 0 -195 69 -195 178z" />
    <glyph glyph-name="guilsinglleft.cap" horiz-adv-x="236" 
d="M211 144h-94l-92 158l92 158h94l-92 -158z" />
    <glyph glyph-name="guilsinglright.cap" horiz-adv-x="236" 
d="M119 144h-94l92 158l-92 158h94l92 -158z" />
    <glyph glyph-name="guillemotleft.cap" horiz-adv-x="397" 
d="M207 144h-90l-92 158l92 158h90l-92 -158zM372 144h-90l-92 158l92 158h90l-92 -158z" />
    <glyph glyph-name="guillemotright.cap" horiz-adv-x="397" 
d="M280 144h-90l92 158l-92 158h90l92 -158zM115 144h-90l92 158l-92 158h90l92 -158z" />
    <glyph glyph-name="slash.cap" horiz-adv-x="357" 
d="M5 -64l248 734h99l-248 -734h-99z" />
    <glyph glyph-name="backslash.cap" horiz-adv-x="357" 
d="M104 670l248 -734h-99l-248 734h99z" />
    <glyph glyph-name="bar.cap" horiz-adv-x="232" 
d="M68 -64v734h96v-734h-96z" />
    <glyph glyph-name="periodcentered.cap" horiz-adv-x="200" 
d="M32 303c0 39 30 69 68 69s68 -30 68 -69s-30 -69 -68 -69s-68 30 -68 69z" />
    <glyph glyph-name="bullet.cap" horiz-adv-x="352" 
d="M320 302c0 -84 -64 -143 -144 -143s-144 59 -144 143c0 85 64 144 144 144s144 -59 144 -144z" />
    <glyph glyph-name="hyphen.cap" horiz-adv-x="321" 
d="M40 257v91h241v-91h-241z" />
    <glyph glyph-name="endash.cap" horiz-adv-x="475" 
d="M40 263v79h395v-79h-395z" />
    <glyph glyph-name="emdash.cap" horiz-adv-x="846" 
d="M40 263v79h766v-79h-766z" />
    <glyph glyph-name="parenleft.cap" horiz-adv-x="318" 
d="M30 303c0 183 104 324 268 367v-108c-97 -24 -169 -121 -169 -259s72 -235 169 -259v-108c-164 43 -268 184 -268 367z" />
    <glyph glyph-name="parenright.cap" horiz-adv-x="318" 
d="M288 303c0 -183 -104 -324 -268 -367v108c97 24 169 121 169 259s-72 235 -169 259v108c164 -43 268 -184 268 -367z" />
    <glyph glyph-name="bracketleft.cap" horiz-adv-x="315" 
d="M162 580v-554h133v-90h-227v734h227v-90h-133z" />
    <glyph glyph-name="bracketright.cap" horiz-adv-x="315" 
d="M153 26v554h-133v90h227v-734h-227v90h133z" />
    <glyph glyph-name="braceleft.cap" horiz-adv-x="344" 
d="M197 220v-165c0 -19 10 -29 29 -29h98v-90h-96c-76 0 -129 53 -129 130v162c0 19 -10 29 -29 29h-50v92h50c19 0 29 10 29 29v162c0 77 53 130 129 130h96v-90h-98c-19 0 -29 -10 -29 -29v-165c0 -43 -21 -67 -47 -83c26 -16 47 -40 47 -83z" />
    <glyph glyph-name="braceright.cap" horiz-adv-x="344" 
d="M147 55v165c0 43 21 67 47 83c-26 16 -47 40 -47 83v165c0 19 -10 29 -29 29h-98v90h96c76 0 129 -53 129 -130v-162c0 -19 10 -29 29 -29h50v-92h-50c-19 0 -29 -10 -29 -29v-162c0 -77 -53 -130 -129 -130h-96v90h98c19 0 29 10 29 29z" />
    <glyph glyph-name="at.cap" horiz-adv-x="774" 
d="M570 474l-40 -231c-6 -35 2 -50 33 -50c62 0 106 66 106 173c0 141 -110 225 -258 225c-179 0 -303 -126 -303 -309c0 -211 168 -273 304 -273c93 0 161 20 224 48v-72c-50 -25 -133 -47 -224 -47c-196 0 -384 103 -384 344c0 210 154 381 383 381
c199 0 335 -128 335 -297c0 -164 -98 -241 -199 -241c-47 0 -88 20 -108 54c-18 -33 -60 -54 -96 -54c-82 0 -135 65 -135 149c0 111 77 210 184 210c41 0 72 -18 85 -37l6 27h87zM441 252l21 111c-8 23 -32 41 -64 41c-60 0 -98 -61 -98 -125c0 -42 23 -73 65 -73
c35 0 60 22 76 46z" />
    <glyph glyph-name="Euro.lt" horiz-adv-x="520" 
d="M26 336v77h58c30 129 116 211 223 211c101 0 171 -60 194 -170h-97c-12 49 -47 79 -99 79c-60 0 -101 -47 -121 -120h177l-14 -77h-174c-1 -10 -1 -19 -1 -29c0 -12 0 -23 1 -34h166l-15 -77h-138c20 -70 61 -115 119 -115c52 0 87 30 99 79h97
c-23 -110 -93 -170 -194 -170c-106 0 -190 79 -221 206h-60v77h48c-1 11 -1 22 -1 34v29h-47z" />
    <glyph glyph-name="dollar.lt" horiz-adv-x="520" 
d="M227 -92v99c-97 14 -166 73 -183 170h100c19 -60 67 -87 130 -87c68 0 110 31 110 85c0 41 -23 65 -83 79l-98 24c-79 19 -144 65 -144 160c0 92 66 161 168 171v90h90v-95c86 -18 138 -75 156 -157h-97c-14 44 -53 79 -122 79c-62 0 -101 -33 -101 -81
c0 -40 25 -64 76 -77l100 -24c90 -21 149 -76 149 -164c0 -97 -65 -159 -161 -173v-99h-90z" />
    <glyph glyph-name="cent.lt" horiz-adv-x="520" 
d="M64 232c0 122 68 209 167 228v87h90v-88c79 -17 126 -74 135 -151h-98c-6 44 -41 69 -87 69c-67 0 -107 -61 -107 -145s40 -145 107 -145c46 0 81 25 87 69h98c-9 -77 -56 -134 -135 -151v-94h-90v93c-99 18 -167 106 -167 228z" />
    <glyph glyph-name="sterling.lt" horiz-adv-x="520" 
d="M214 426v-83h141v-81h-141v-88c0 -35 -6 -71 -21 -91h286v-83h-438v83h57c13 23 20 47 20 91v88h-77v81h77v83c0 109 73 198 186 198c102 0 164 -64 175 -156h-95c-6 44 -34 70 -80 70c-61 0 -90 -48 -90 -112z" />
    <glyph glyph-name="yen.lt" horiz-adv-x="520" 
d="M51 265v77h114l-149 272h110l136 -263l135 263h107l-151 -272h115v-77h-157v-63h157v-77h-157v-125h-103v125h-157v77h157v63h-157z" />
    <glyph glyph-name="florin.lt" horiz-adv-x="520" 
d="M138 267v84h87l22 126c17 95 79 147 172 147c25 0 47 -5 64 -12v-88c-17 9 -38 14 -62 14c-40 0 -69 -24 -77 -68l-21 -119h90v-84h-105l-53 -300c-17 -95 -59 -147 -155 -147c-29 0 -47 4 -64 12v88c17 -9 46 -14 62 -14c41 0 52 24 60 68l52 293h-72z" />
    <glyph glyph-name="zero.lt" horiz-adv-x="520" 
d="M260 -10c-139 0 -232 130 -232 317s93 317 232 317s232 -130 232 -317s-93 -317 -232 -317zM260 530c-91 0 -131 -94 -131 -223s40 -223 131 -223c90 0 130 94 130 223s-40 223 -130 223z" />
    <glyph glyph-name="one.lt" horiz-adv-x="520" 
d="M81 0v91h163v398l-163 -83v105l203 103h61v-523h147v-91h-411z" />
    <glyph glyph-name="two.lt" horiz-adv-x="520" 
d="M348 445c0 51 -36 87 -94 87c-61 0 -94 -44 -98 -102h-107c12 114 91 194 205 194c123 0 195 -69 195 -178c0 -75 -60 -139 -125 -208l-132 -147h267v-91h-409v68l182 202c62 71 116 122 116 175z" />
    <glyph glyph-name="three.lt" horiz-adv-x="520" 
d="M221 270v87h40c59 0 102 31 102 89c0 49 -38 89 -99 89c-65 0 -100 -43 -104 -97h-102c13 107 91 186 208 186c123 0 195 -72 195 -172c0 -64 -32 -117 -81 -138c64 -26 93 -84 93 -141c0 -104 -77 -183 -206 -183c-133 0 -213 76 -223 194h103c7 -61 44 -105 118 -105
c62 0 108 39 108 95c0 59 -46 96 -111 96h-41z" />
    <glyph glyph-name="four.lt" horiz-adv-x="520" 
d="M359 614l-223 -400h164v144h96v-144h101v-86h-101v-128h-96v128h-277v72l231 414h105z" />
    <glyph glyph-name="five.lt" horiz-adv-x="520" 
d="M265 316c-47 0 -89 -22 -110 -48h-78v346h357v-92h-273v-150c19 15 64 33 112 33c118 0 200 -84 200 -207s-83 -208 -209 -208c-127 0 -212 76 -222 194h102c8 -62 52 -104 121 -104c68 0 111 49 111 118s-43 118 -111 118z" />
    <glyph glyph-name="six.lt" horiz-adv-x="520" 
d="M156 196c0 -71 46 -119 116 -119c68 0 114 48 114 119c0 73 -46 122 -114 122c-70 0 -116 -48 -116 -122zM476 468h-104c-14 44 -44 71 -94 71c-83 0 -137 -102 -137 -205v-11c22 46 76 79 141 79c124 0 199 -95 199 -204c0 -112 -76 -208 -210 -208
c-75 0 -144 36 -185 118c-26 54 -37 110 -37 186c0 191 88 330 229 330c112 0 173 -57 198 -156z" />
    <glyph glyph-name="seven.lt" horiz-adv-x="520" 
d="M471 535l-222 -535h-104l220 522h-318v92h424v-79z" />
    <glyph glyph-name="eight.lt" horiz-adv-x="520" 
d="M262 74c65 0 116 38 116 101c0 64 -51 101 -116 101c-64 0 -115 -37 -115 -101c0 -63 51 -101 115 -101zM262 363c51 0 98 32 98 88c0 58 -47 90 -98 90c-50 0 -97 -32 -97 -90c0 -56 47 -88 97 -88zM262 -10c-119 0 -214 66 -214 177c0 82 54 136 114 151
c-52 20 -95 69 -95 138c0 108 91 168 195 168c105 0 196 -60 196 -168c0 -69 -43 -118 -95 -138c60 -15 114 -69 114 -151c0 -111 -95 -177 -215 -177z" />
    <glyph glyph-name="nine.lt" horiz-adv-x="520" 
d="M364 418c0 71 -46 119 -116 119c-68 0 -114 -48 -114 -119c0 -73 46 -122 114 -122c70 0 116 48 116 122zM44 146h104c14 -44 44 -71 94 -71c83 0 137 102 137 205v11c-22 -46 -76 -79 -141 -79c-124 0 -199 95 -199 204c0 112 76 208 210 208c75 0 144 -36 185 -118
c26 -54 37 -110 37 -186c0 -191 -88 -330 -229 -330c-112 0 -173 57 -198 156z" />
    <glyph glyph-name="period.tab" horiz-adv-x="260" 
d="M62 62c0 39 30 69 68 69s68 -30 68 -69s-30 -69 -68 -69s-68 30 -68 69z" />
    <glyph glyph-name="comma.tab" horiz-adv-x="260" 
d="M46 -113l72 111c-32 5 -56 28 -56 64c0 39 30 67 68 67s68 -26 68 -75c0 -26 -13 -56 -29 -80l-58 -87h-65z" />
    <glyph glyph-name="colon.tab" horiz-adv-x="260" 
d="M62 62c0 39 30 69 68 69s68 -30 68 -69s-30 -69 -68 -69s-68 30 -68 69zM62 362c0 39 30 69 68 69s68 -30 68 -69s-30 -69 -68 -69s-68 30 -68 69z" />
    <glyph glyph-name="semicolon.tab" horiz-adv-x="260" 
d="M46 -113l72 111c-32 5 -56 28 -56 64c0 39 30 67 68 67s68 -26 68 -75c0 -26 -13 -56 -29 -80l-58 -87h-65zM62 362c0 39 30 69 68 69s68 -30 68 -69s-30 -69 -68 -69s-68 30 -68 69z" />
    <glyph glyph-name="space.tab" horiz-adv-x="260" 
 />
    <glyph glyph-name="uni2153" unicode="&#x2153;" horiz-adv-x="706" 
d="M596 614l-439 -614h-87l439 614h87zM508 139v61h23c25 0 43 12 43 36c0 21 -15 36 -38 36c-24 0 -40 -19 -42 -41h-80c7 60 49 109 119 109c73 0 116 -41 116 -101c0 -30 -16 -58 -38 -70c28 -13 42 -41 42 -69c0 -62 -44 -105 -119 -105s-120 44 -125 111h83
c2 -25 18 -43 44 -43c25 0 42 14 42 39c0 24 -18 37 -44 37h-26zM205 614v-335h-81v241l-89 -44v82l115 56h55z" />
    <glyph glyph-name="uni2154" unicode="&#x2154;" horiz-adv-x="772" 
d="M662 614l-439 -614h-87l439 614h87zM204 519c0 20 -14 33 -34 33c-22 0 -37 -19 -38 -39h-84c7 63 52 111 121 111c72 0 116 -41 116 -103c0 -43 -30 -73 -63 -107l-63 -61h128v-69h-237v55l111 113c29 29 43 47 43 67zM574 139v61h23c25 0 43 12 43 36
c0 21 -15 36 -38 36c-24 0 -40 -19 -42 -41h-80c7 60 49 109 119 109c73 0 116 -41 116 -101c0 -30 -16 -58 -38 -70c28 -13 42 -41 42 -69c0 -62 -44 -105 -119 -105s-120 44 -125 111h83c2 -25 18 -43 44 -43c25 0 42 14 42 39c0 24 -18 37 -44 37h-26z" />
    <glyph glyph-name="uni215B" unicode="&#x215b;" horiz-adv-x="719" 
d="M596 614l-439 -614h-87l439 614h87zM542 60c26 0 45 15 45 40c0 24 -19 39 -45 39s-45 -15 -45 -39c0 -25 19 -40 45 -40zM542 206c22 0 39 14 39 36c0 23 -17 37 -39 37s-40 -14 -40 -37c0 -22 18 -36 40 -36zM542 -4c-69 0 -125 36 -125 97c0 41 25 68 55 78
c-27 13 -44 40 -44 73c0 63 53 97 114 97c60 0 114 -34 114 -97c0 -33 -18 -60 -45 -73c31 -10 55 -37 55 -78c0 -61 -55 -97 -124 -97zM205 614v-335h-81v241l-89 -44v82l115 56h55z" />
    <glyph glyph-name="uni215C" unicode="&#x215c;" horiz-adv-x="756" 
d="M579 60c26 0 45 15 45 40c0 24 -19 39 -45 39s-45 -15 -45 -39c0 -25 19 -40 45 -40zM579 206c22 0 39 14 39 36c0 23 -17 37 -39 37s-40 -14 -40 -37c0 -22 18 -36 40 -36zM579 -4c-69 0 -125 36 -125 97c0 41 25 68 55 78c-27 13 -44 40 -44 73c0 63 53 97 114 97
c60 0 114 -34 114 -97c0 -33 -18 -60 -45 -73c31 -10 55 -37 55 -78c0 -61 -55 -97 -124 -97zM633 614l-439 -614h-87l439 614h87zM144 418v61h23c25 0 43 12 43 36c0 21 -15 36 -38 36c-24 0 -40 -19 -42 -41h-80c7 60 49 109 119 109c73 0 116 -41 116 -101
c0 -30 -16 -58 -38 -70c28 -13 42 -41 42 -69c0 -62 -44 -105 -119 -105s-120 44 -125 111h83c2 -25 18 -43 44 -43c25 0 42 14 42 39c0 24 -18 37 -44 37h-26z" />
    <glyph glyph-name="uni215D" unicode="&#x215d;" horiz-adv-x="762" 
d="M585 60c26 0 45 15 45 40c0 24 -19 39 -45 39s-45 -15 -45 -39c0 -25 19 -40 45 -40zM585 206c22 0 39 14 39 36c0 23 -17 37 -39 37s-40 -14 -40 -37c0 -22 18 -36 40 -36zM585 -4c-69 0 -125 36 -125 97c0 41 25 68 55 78c-27 13 -44 40 -44 73c0 63 53 97 114 97
c60 0 114 -34 114 -97c0 -33 -18 -60 -45 -73c31 -10 55 -37 55 -78c0 -61 -55 -97 -124 -97zM639 614l-439 -614h-87l439 614h87zM177 434c-18 0 -32 -9 -41 -19h-69v199h205v-70h-138v-56c11 7 31 13 51 13c68 0 111 -46 111 -112c0 -70 -47 -115 -119 -115
c-75 0 -122 44 -127 111h83c3 -23 19 -42 45 -42c24 0 41 19 41 45s-16 46 -42 46z" />
    <glyph glyph-name="uni215E" unicode="&#x215e;" horiz-adv-x="703" 
d="M526 60c26 0 45 15 45 40c0 24 -19 39 -45 39s-45 -15 -45 -39c0 -25 19 -40 45 -40zM526 206c22 0 39 14 39 36c0 23 -17 37 -39 37s-40 -14 -40 -37c0 -22 18 -36 40 -36zM526 -4c-69 0 -125 36 -125 97c0 41 25 68 55 78c-27 13 -44 40 -44 73c0 63 53 97 114 97
c60 0 114 -34 114 -97c0 -33 -18 -60 -45 -73c31 -10 55 -37 55 -78c0 -61 -55 -97 -124 -97zM580 614l-439 -614h-87l439 614h87zM279 557l-104 -278h-83l100 263h-146v72h233v-57z" />
    <glyph glyph-name="percent.lt" horiz-adv-x="520" 
d="M20 502c0 68 54 122 121 122c68 0 122 -54 122 -122c0 -67 -54 -121 -122 -121c-67 0 -121 54 -121 121zM86 502c0 -31 24 -55 55 -55s56 24 56 55s-25 56 -56 56s-55 -25 -55 -56zM500 112c0 -68 -54 -122 -121 -122c-68 0 -122 54 -122 122c0 67 54 121 122 121
c67 0 121 -54 121 -121zM434 112c0 31 -24 55 -55 55s-56 -24 -56 -55s25 -56 56 -56s55 25 55 56zM36 0l369 614h79l-369 -614h-79z" />
    <glyph glyph-name="perthousand.lt" horiz-adv-x="800" 
d="M42 0l369 614h79l-369 -614h-79zM92 502c0 -31 24 -55 55 -55s56 24 56 55s-25 56 -56 56s-55 -25 -55 -56zM506 112c0 -68 -54 -122 -121 -122c-68 0 -122 54 -122 122c0 67 54 121 122 121c67 0 121 -54 121 -121zM440 112c0 31 -24 55 -55 55s-56 -24 -56 -55
s25 -56 56 -56s55 25 55 56zM26 502c0 68 54 122 121 122c68 0 122 -54 122 -122c0 -67 -54 -121 -122 -121c-67 0 -121 54 -121 121zM773 112c0 -68 -54 -122 -121 -122c-68 0 -122 54 -122 122c0 67 54 121 122 121c67 0 121 -54 121 -121zM707 112c0 31 -24 55 -55 55
s-56 -24 -56 -55s25 -56 56 -56s55 25 55 56z" />
    <glyph glyph-name="plus.lt" horiz-adv-x="520" 
d="M220 507h80v-168h168v-80h-168v-167h-80v167h-168v80h168v168z" />
    <glyph glyph-name="minus.lt" horiz-adv-x="520" 
d="M52 259v80h416v-80h-416z" />
    <glyph glyph-name="multiply.lt" horiz-adv-x="520" 
d="M206 297l-123 121l55 55l121 -122l122 122l55 -55l-122 -121l122 -121l-55 -56l-122 122l-121 -122l-55 56z" />
    <glyph glyph-name="divide.lt" horiz-adv-x="520" 
d="M52 259v80h416v-80h-416zM197 467c0 35 28 64 63 64s64 -29 64 -64s-29 -63 -64 -63s-63 28 -63 63zM197 131c0 35 28 63 63 63s64 -28 64 -63s-29 -64 -64 -64s-63 29 -63 64z" />
    <glyph glyph-name="equal.lt" horiz-adv-x="520" 
d="M52 188v74h415v-74h-415zM52 336v76h415v-76h-415z" />
    <glyph glyph-name="less.lt" horiz-adv-x="520" 
d="M102 244v107l316 152v-92l-243 -114l243 -113v-93z" />
    <glyph glyph-name="greater.lt" horiz-adv-x="520" 
d="M418 351v-107l-317 -153v93l243 113l-243 114v92z" />
    <glyph glyph-name="plusminus.lt" horiz-adv-x="520" 
d="M220 539h79v-132h164v-79h-164v-132h-79v132h-164v79h164v132zM56 73v79h407v-79h-407z" />
    <glyph glyph-name="lessequal.lt" horiz-adv-x="520" 
d="M101 307v101l317 126v-88l-235 -88l235 -89v-87zM101 73v79h317v-79h-317z" />
    <glyph glyph-name="greaterequal.lt" horiz-adv-x="520" 
d="M418 408v-101l-317 -125v87l234 89l-234 88v88zM418 152v-79h-317v79h317z" />
    <glyph glyph-name="notequal.lt" horiz-adv-x="520" 
d="M52 337v73h247l67 96h72l-67 -96h96v-73h-146l-53 -76h199v-73h-249l-66 -95h-72l66 95h-94v73h144l53 76h-197z" />
    <glyph glyph-name="approxequal.lt" horiz-adv-x="520" 
d="M52 312v76c40 26 77 37 112 37c70 0 118 -36 188 -36c35 0 73 11 115 38v-76c-42 -27 -80 -38 -115 -38c-70 0 -118 37 -188 37c-35 0 -72 -11 -112 -38zM52 174v75c40 27 77 38 112 38c70 0 118 -37 188 -37c35 0 73 10 115 38v-76c-42 -27 -80 -37 -115 -37
c-70 0 -118 36 -188 36c-35 0 -72 -11 -112 -37z" />
    </font>
</defs>
</svg>
